Ангелина [1-16 серия из 16] (2018) HDTV 1080p от Generalfilm

Reply to topic
 
Author Message

White Smoke ®

Gender: Male

Longevity: 8 months 4 days

Posts: 70

Post 04-Jun-2019 18:21

[Quote]

Ангелина Год выпуска: 2018
Жанр: Мелодрама
Выпущено: Россия, Украина Студия: Filmstream, Vileton production
Режиссер: Роман Барабаш
В ролях: Мария Куликова, Виталий Кудрявцев, Татьяна Колганова, Александр Арсентьев, Александр Яцко, Леонид Громов, Анна Сагайдачная, Сергей Козлов (VI), Виктория Левченко (III), Олег Загородний, Мария Трепикова, Анастасия Цымбалару, Владислав Писаренко, Олег Щербина (II), Дарья Легейда, Полина Василина, Юлия Шугар, Влад Никитюк, Юрий Фелипенко, Анна Кузина, Галина Корнеева, Елена Бондарева-Репина, Оксана Архангельская, Татьяна Ружавская, Владислав Мамчур, Борислав Борисенко, Елена Колесниченко, Игорь Рубашкин, Наталия Бабенко
О фильме: Юная Ангелина унаследовала от бабки-травницы секреты народной медицины и ее обширную клиентуру. Ангелине по душе семейное занятие, которому она посвящает все свое время, несмотря на то, что жених Павел Коростылев уговаривает девушку бросить знахарство ради их общего будущего. Упрямство Ангелины и интриги ее соперницы Инги Думановой, влюбленной в Павла, делают свое дело. Ангелина и Павел расстаются – и каждый из них в этом разрыве винит противоположную сторону. Зато на улице Инги наступает праздник – свадьба с Павлом не за горами. А вскоре у молодой пары рождаются мальчики-близнецы...
Качество: HDTV 1080p
Видео: AVC, 1920x1080 (16:9), 25.000 fps, 7 051 Kbps (0.136 bit/pixel)
Аудио: AC3 / 2.0 / 48.0 kHz / 192 kbps
Продолжительность: ~00:56:53
Перевод / Озвучка: Не требуется
Cубтитры: нет

Скриншоты





MediaInfo

General
Unique ID : 237582460942430357504010714117597010819 (0xB2BCB7B3424750DBBA13E9C905739B83)
Complete name : E:\Запись с тв\Angelina 2018 HDTV 1080p.R.G.Generalfilm\Angelina.s01.e01.2018.HDTV 1080p.by.White Smoke.R.G.Generalfilm.mkv
Format : Matroska
Format version : Version 4 / Version 2
File size : 2.88 GiB
Duration : 56 min 53 s
Overall bit rate mode : Constant
Overall bit rate : 7 239 kb/s
Movie name : Angelina.s01.e01.2018.HDTV 1080p.by.White Smoke.R.G.Generalfilm.mkv
Encoded date : UTC 2019-06-04 14:46:05
Writing application : mkvmerge v6.8.0 ('Theme for Great Cities') 64bit built on Mar 2 2014 21:34:26
Writing library : libebml v1.3.0 + libmatroska v1.4.1
Cover : Yes
Attachments : cover.jpg
Video
ID : 1
Format : AVC
Format/Info : Advanced Video Codec
Format profile : High@L4.1
Format settings : CABAC / 3 Ref Frames
Format settings, CABAC : Yes
Format settings, ReFrames : 3 frames
Codec ID : V_MPEG4/ISO/AVC
Duration : 56 min 53 s
Bit rate mode : Constant
Bit rate : 7 051 kb/s
Width : 1 920 pixels
Height : 1 080 pixels
Display aspect ratio : 16:9
Frame rate mode : Constant
Frame rate : 25.000 FPS
Standard : PAL
Color space : YUV
Chroma subsampling : 4:2:0
Bit depth : 8 bits
Scan type : Progressive
Bits/(Pixel*Frame) : 0.136
Stream size : 2.74 GiB (95%)
Default : Yes
Forced : No
Color range : Limited
Color primaries : BT.709
Transfer characteristics : BT.709
Matrix coefficients : BT.709
Audio
ID : 2
Format : AC-3
Format/Info : Audio Coding 3
Commercial name : Dolby Digital
Codec ID : A_AC3
Duration : 56 min 53 s
Bit rate mode : Constant
Bit rate : 192 kb/s
Channel(s) : 2 channels
Channel layout : L R
Sampling rate : 48.0 kHz
Frame rate : 31.250 FPS (1536 SPF)
Bit depth : 16 bits
Compression mode : Lossy
Stream size : 78.1 MiB (3%)
Service kind : Complete Main
Default : Yes
Forced : No
Релиз от: Огромное спасибо пользователю Starik60 за помощь в записи для данной раздачи


Last edited by White Smoke on 2019-06-14 21:06; edited 2 times in total
[Profile] [PM]

volkov-57

Gender: Male

Longevity: 7 months 13 days

Posts: 3

Post 11-Jun-2019 08:21 (after 6 days)

[Quote]

Где скачать? HDTVRip 720p, HDTVRip, HDTVRip-AVC
[Profile] [PM]
Display posts:    
Reply to topic

Current time is: 17-Jul 15:50

All times are UTC + 3



You cannot post new topics in this forum
You cannot reply to topics in this forum
You cannot edit your posts in this forum
You cannot delete your posts in this forum
You cannot vote in polls in this forum
You cannot attach files in this forum
You cannot download files in this forum