КВН-2019. Кубок мэра Москвы [16.11] (2019) HDTVRip от GeneralFilm

Reply to topic
 
Author Message

olegka7373 ®

Gender: Male

Longevity: 1 year 3 months

Posts: 281

Location: Россия, Новокузнецк

Post 16-Nov-2019 20:05

[Quote]

КВН-2019. Кубок мэра Москвы
Год выпуска: 2019
Жанр: Юмор
Выпущено: Россия, ОАО "Первый канал"
Ведущий: Александр Масляков
О фильме: КВН – соревнование в индивидуальном и командном остроумии – на сегодняшний день представляет собой самостоятельный жанр сценического искусства. История КВН берет свое начало в 1957 году, являясь поначалу викториной под названием «Вечер Веселых Вопросов», а уже с 1961 года передача стала выходить в эфир под названием «КВН». Поначалу передача планировалась как соревнование эрудитов, со временем же, претерпевая метаморфозы, она стала приобретать явно юмористическую окраску содержания. Помимо того, что это была единственная молодежная юмористическая передача своего времени, у ее истоков стояли и известнейшие телеведущие страны – сначала сам автор программы Альберт Аксельрод в паре с юной Светланой Жильцовой, впоследствии Аксельрода сменил тогда еще студент-четверокурсник Александр Масляков. Сегодня это уже не совсем та передача, что приковывала внимание зрителей десятилетия назад, это проект, который в поиске новых идей и находок меняется вместе с нашей жизнью и, как показывает жизнь, процесс его совершенствования просто бесконечен.
Качество: HDTVRip
Видео: XviD, 1795 Кбит/с, 720х400, 25 кадр/с
Аудио: Русский (AC3, 2 ch, 192 Кбит/с)
Продолжительность: 01:56:59
Перевод: Не требуется
Субтитры: нет

Скриншоты


MediaInfo

Общее
Полное имя : D:KVN-2019. Kubok mjera Moskvy.HDTVRip.GeneralFilm.avi
Формат : AVI
Формат/Информация : Audio Video Interleave
Размер файла : 1,63 Гбайт
Продолжительность : 1 ч. 56 м.
Общий поток : 1998 Кбит/сек
Видео
Идентификатор : 0
Формат : MPEG-4 Visual
Профиль формата : Advanced Simple@L5
Параметр BVOP формата : 1
Параметр QPel формата : Нет
Параметр GMC формата : Без точки перехода
Параметр матрицы формата : Выборочная
Идентификатор кодека : XVID
Идентификатор кодека/Подсказка : XviD
Продолжительность : 1 ч. 56 м.
Битрейт : 1795 Кбит/сек
Ширина : 720 пикселей
Высота : 400 пикселей
Соотношение сторон : 16:9
Частота кадров : 25,000 кадров/сек
Цветовое пространство : YUV
Субдискретизация насыщенности : 4:2:0
Битовая глубина : 8 бит
Тип развёртки : Прогрессивная
Метод сжатия : С потерями
Бит/(Пиксели*Кадры) : 0.249
Размер потока : 1,47 Гбайт (90%)
Библиотека кодирования : XviD 1.2.1 (UTC 2008-12-04)
Аудио
Идентификатор : 1
Формат : AC-3
Формат/Информация : Audio Coding 3
Расширение режима : CM (complete main)
Параметр Endianness формата : Big
Идентификатор кодека : 2000
Продолжительность : 1 ч. 56 м.
Вид битрейта : Постоянный
Битрейт : 192 Кбит/сек
Каналы : 2 канала
Расположение каналов : Front: L R
Частота : 48,0 КГц
Битовая глубина : 16 бит
Метод сжатия : С потерями
Размер потока : 161 Мбайт (10%)
Выравнивание : Соединение по промежуткам
Продолжительность промежутка : 32 мс. (0,80 видеокадр)

Команды

«Такая история» (ОГУ им. Тургенева, Орел)
«НАТЕ» (Станица Брюховецкая)
«Наполеон Динамит» (Тюменская область)
«Будем дружить семьями» (Москва)
и многочисленные гости.
Релиз:
[Profile] [PM]
Display posts:    
Reply to topic

Current time is: 20-Feb 09:22

All times are UTC + 3



You cannot post new topics in this forum
You cannot reply to topics in this forum
You cannot edit your posts in this forum
You cannot delete your posts in this forum
You cannot vote in polls in this forum
You cannot attach files in this forum
You cannot download files in this forum