Орвилл / The Orville [2 сезон: 1-14 серия из 14] (2019) WEB-DLRip | Lostfilm

Reply to topic
 
Author Message

kfelix ®

Gender: Male

Longevity: 3 months 30 days

Posts: 18

Post 29-Jan-2019 17:47

[Quote]

Орвилл / The Orville
Год выпуска: 2019
Жанр: Драма, Комедия, Фантастика
Выпущено: США, 20th Century Fox Television, Fuzzy Door Productions, Twentieth Century Fox Television
Режиссер: Брэннон Брага, Джон Кассар, Джеймс Л. Конуэй
В ролях: Сет МакФарлейн, Чад Л. Коулмэн, Скотт Граймз, Марк Джексон, Пенни Джонсон, Дж. Ли, Питер Макон, Эдрианн Палики, Холстон Сейдж, Ларри Джо Кэмпбелл
О фильме: Ресурсы нашей планеты не бесконечны. Поэтому их расточительное использование приводит к тому, что в XXV веке человечество вынуждено искать новые источники продовольствия и полезных ископаемых. К тому же землянам необходим толчок в области научно-технического прогресса, ведь люди уже смогли исследовать абсолютно все уголки планеты и создать все, что было возможно. Настало время покорить вселенную, ведь им удалось найти разумную жизнь за пределами Земли. Лучшие ученые смогли создать в рамках проекта Орвилл гигантский космический корабль, капитаном которого становится Мерсер. Парню необходимо отвлечься после развода. Но он приходит в ярость, когда его помощником назначается его бывшая жена. Им предстоит забыть о старых обидах и начать действовать сообща ради общего блага...
Качество: WEB-DLRip
Видео: XviD, 720x400, ~1393 kb/s, 23.976 fps
Аудио: MP3, 48 kHz, 2 ch, 192 kb/s
Продолжительность: ~ 00:55:00 серия
Перевод: Профессиональный (многоголосый закадровый) | Lostfilm
Субтитры: нет

Скриншоты

MediaInfo

Общее
Полное имя : D:\Torrentin\Орвилл (The Orville) s02\The.Orville.S02E01.rus.LostFilm..avi
Формат : AVI
Формат/Информация : Audio Video Interleave
Размер файла : 554 Мбайт
Продолжительность : 48 м. 35 с.
Режим общего битрейта : Переменный
Общий поток : 1593 Кбит/сек
Программа кодирования : Nandub v1.0rc2
Библиотека кодирования : Nandub build 1853/release
Видео
Идентификатор : 0
Формат : MPEG-4 Visual
Профиль формата : Advanced Simple@L5
Параметр BVOP формата : Нет
Параметр QPel формата : Нет
Параметр GMC формата : Без точки перехода
Параметр матрицы формата : Default (MPEG)
Идентификатор кодека : XVID
Идентификатор кодека/Подсказка : XviD
Продолжительность : 48 м. 35 с.
Битрейт : 1393 Кбит/сек
Ширина : 720 пикселей
Высота : 400 пикселей
Соотношение сторон : 16:9
Частота кадров : 23,976 (24000/1001) кадра/сек
Частота кадров в оригинале : 23,976 (23976/1000) кадра/сек
Цветовое пространство : YUV
Субдискретизация насыщенности : 4:2:0
Битовая глубина : 8 бит
Тип развёртки : Прогрессивная
Метод сжатия : С потерями
Бит/(Пиксели*Кадры) : 0.202
Размер потока : 484 Мбайт (87%)
Библиотека кодирования : XviD 1.2.1 (UTC 2008-12-04)
Аудио
Идентификатор : 1
Формат : MPEG Audio
Версия формата : Version 1
Профиль формата : Layer 3
Настройки формата : Joint stereo
Идентификатор кодека : 55
Идентификатор кодека/Подсказка : MP3
Продолжительность : 48 м. 34 с.
Вид битрейта : Переменный
Битрейт : 192 Кбит/сек
Каналы : 2 канала
Частота : 48,0 КГц
Частота кадров : 41,667 кадра/сек (1152 SPF)
Метод сжатия : С потерями
Размер потока : 65,1 Мбайт (12%)
Выравнивание : Соединение по промежуткам
Продолжительность промежутка : 24 мс. (0,58 видеокадр)
Время предзагрузки промежутка : 420 мс.
Библиотека кодирования : LAME3.97b
Настройки программы : -m j -V 4 -q 3 -lowpass 18.6 --abr 192

Внимание! Раздача ведётся путём добавления новых серий!

Внимание! Раздача ведётся путём добавления новых серий; при каждом добавлении создfётся новый торрент. Чтобы начать докачку новой серии, пользователям необходимо сделать следующее: (1) остановить скачивание, (2) удалить старый торрент у себя из клиента (старые серии удалять не надо), (3) скачать новый торрент и запустить его у себя в клиенте вместо старого, при этом указать клиенту путь в старую папку куда и должно происходить скачивание новых серий.
Ваш клиент при этом должен произвести хеширование (проверку) старой папки (если не производит сам - помогите ему сделать это), и будет докачивать только те серии которых у вас ещё нет. Старые серии при этом не удаляются, а продолжают раздаваться!
Eсли вы уже удалили старые серии, то предотвратить повторную закачку старых серий можно, отжав галочку в соответсвующих местах при запуске нового торрента.
Релиз от:


Last edited by kfelix on 2019-01-29 18:09; edited 3 times in total
[Profile] [PM]
Display posts:    
Reply to topic

Current time is: 23-May 14:35

All times are UTC + 3



You cannot post new topics in this forum
You cannot reply to topics in this forum
You cannot edit your posts in this forum
You cannot delete your posts in this forum
You cannot vote in polls in this forum
You cannot attach files in this forum
You cannot download files in this forum