Отставник. Один за всех [1-2 серия из 2] (2019) WEBRip от Files-x

Reply to topic
 
Author Message

bond74 ®

Gender: Male

Longevity: 8 months 2 days

Posts: 550

Post 23-Feb-2019 22:15

[Quote]

Отставник. Один за всех Год выпуска: 2019
Жанр: Боевик
Выпущено: Россия, Триикс Медиа
Режиссер: Андрей Щербинин
В ролях: Борис Галкин, Сергей Цепов, Игорь Качаев, Наталья Круглова, Иван Паршин, Сергей Требесов, Наталья Бурмистрова
О фильме: Полковник Дедов давно отошел от больших дел, найдя свое призвание в военно-патриотическом воспитании молодежи. Но однажды на него совершается покушение: в его квартиру проникает неизвестный, и только благодаря военной сноровке и навыкам самообороны Дедову удается избежать смерти. Его положение усложняется тем, что в борьбе с нападавшим он убивает киллера. Дедов попадает за решетку. Кому мог помешать старый отставник? Есть ли связь между покушением и гибелью его старого боевого товарища Егорова? И что на самом деле случилось во время военной операции в Анголе в 2002 году? Чтобы найти ответы на эти вопросы, Дедову нужно сбежать из тюрьмы.
Качество: WEBRip
Видео: XviD, ~ 1600 Кбит/с, 720x400, 25 кадр/с
Аудио: AC3, 2 ch, 192 Кбит/с
Продолжительность: 2 x ~ 00:46:00
Перевод: Не требуется
Субтитры: нет

Скриншоты

MediaInfo

General
Complete name : C:\00\6354\Otstavnik.Odin.za.vsekh. (2019) .WEBRip.Files-x\01. Otstavnik.Odin.za.vsekh.(2019).WEBRip.Files-x.avi
Format : AVI
Format/Info : Audio Video Interleave
File size : 629 MiB
Duration : 48mn 46s
Overall bit rate : 1 801 Kbps
Writing application : VirtualDubMod 1.5.10.3 | www.virtualdub-fr.org || (build 2550/release)
Writing library : VirtualDubMod build 2550/release
Video
ID : 0
Format : MPEG-4 Visual
Format profile : Advanced Simple@L5
Format settings, BVOP : 1
Format settings, QPel : No
Format settings, GMC : No warppoints
Format settings, Matrix : Custom
Codec ID : XVID
Codec ID/Hint : XviD
Duration : 48mn 46s
Bit rate : 1 600 Kbps
Width : 720 pixels
Height : 400 pixels
Display aspect ratio : 16:9
Frame rate : 25.000 fps
Color space : YUV
Chroma subsampling : 4:2:0
Bit depth : 8 bits
Scan type : Progressive
Compression mode : Lossy
Bits/(Pixel*Frame) : 0.222
Stream size : 558 MiB (89%)
Writing library : XviD 73
Audio
ID : 1
Format : AC-3
Format/Info : Audio Coding 3
Mode extension : CM (complete main)
Codec ID : 2000
Duration : 48mn 46s
Bit rate mode : Constant
Bit rate : 192 Kbps
Channel(s) : 2 channels
Channel positions : Front: L R
Sampling rate : 48.0 KHz
Bit depth : 16 bits
Compression mode : Lossy
Stream size : 67.0 MiB (11%)
Alignment : Split accross interleaves
Interleave, duration : 40 ms (1.00 video frame)
Interleave, preload duration : 500 ms
Релиз от:
[Profile] [PM]
Display posts:    
Reply to topic

Current time is: 17-Jul 15:48

All times are UTC + 3



You cannot post new topics in this forum
You cannot reply to topics in this forum
You cannot edit your posts in this forum
You cannot delete your posts in this forum
You cannot vote in polls in this forum
You cannot attach files in this forum
You cannot download files in this forum