Ох, уж этот экстрасенс Сайки Кусуо! / Saiki Kusuo no Sainan [2 сезон: 1-24 серии из 24] (2018) HDTVRip 720p | AniDUB

Reply to topic
 
Author Message

Monk ®

Gender: Male

Longevity: 1 year

Posts: 9115

Location: Казань

Post 20-Apr-2019 02:43

[Quote]

Ох, уж этот экстрасенс Сайки Кусуо! / Saiki Kusuo no Sainan Год выпуска: 2018
Жанр: Комедия, мистика, школа, мультсериал
Выпущено: Япония, J.C. Staff, Egg Firm
Режиссер: Хироаки Сакурай
В ролях: Хироси Камия, Дайсукэ Оно, Нобунага Симадзаки, Сатоси Хино, Нацуки Ханаэ, Ай Каяно, Юкари Тамура, Маая Утида, Ёсимаса Хосоя, Томоаки Маэно, Сётаро Морикубо, Мицуо Ивата, Рикако Айкава
О фильме: Сюжет рассказывает о Сайки Кусуо, обладающем кучей сверх способностей, в том числе, телепатией и телекинезом. Казалось бы, живи и пользуйся чудо-талантами на радость себе и другим. Но у Кусуо почему-то всё идёт наперекосяк. Однако, он пытается жить нормальной жизнью, несмотря на свои аномальные способности.
Качество: HDTVRip 720p
Видео: MPEG-4 AVC, ~ 1600 Кбит/с, 1280x720
Аудио: Русский (AAC, 2 ch, 192 Кбит/с)
Продолжительность: 24 x ~ 00:24:00
Перевод: Любительский одноголосый [AniDUB]

Скриншоты



MediaInfo

Общее
Полное имя : G:\[AniDub]_Saiki_Kusuo_no_Sainan_[720p]_[JAM]\[AniDub]_Saiki_Kusuo_no_Sainan_[11]_[720p_x264_Aac]_[JAM].mp4
Формат : MPEG-4
Профиль формата : Base Media
Идентификатор кодека : isom (isom)
Размер файла : 327 Мбайт
Продолжительность : 27 м. 5 с.
Режим общего битрейта : Переменный
Общий поток : 1686 Кбит/сек
Дата кодирования : UTC 2018-04-08 18:59:51
Дата пометки : UTC 2018-04-08 18:59:51
Программа кодирования : Yamb 2.1.0.0 [http://yamb.unite-video.com]
Видео
Идентификатор : 1
Формат : AVC
Формат/Информация : Advanced Video Codec
Профиль формата : Main@L3.2
Параметр CABAC формата : Да
Параметр ReFrames формата : 3 кадра
Идентификатор кодека : avc1
Идентификатор кодека/Информация : Advanced Video Coding
Продолжительность : 24 м. 29 с.
Битрейт : 1648 Кбит/сек
Максимальный битрейт : 10,6 Мбит/сек
Ширина : 1280 пикселей
Высота : 720 пикселей
Соотношение сторон : 16:9
Режим частоты кадров : Постоянный
Частота кадров : 23,976 (24000/1001) кадра/сек
Стандарт вещания : NTSC
Цветовое пространство : YUV
Субдискретизация насыщенности : 4:2:0
Битовая глубина : 8 бит
Тип развёртки : Прогрессивная
Бит/(Пиксели*Кадры) : 0.075
Размер потока : 289 Мбайт (88%)
Язык : English
Дата кодирования : UTC 2018-04-01 08:33:21
Дата пометки : UTC 2018-04-08 18:59:51
Цветовой диапазон : Limited
Основные цвета : BT.709
Характеристики трансфера : BT.709
Коэффициенты матрицы : BT.709
Аудио
Идентификатор : 2
Формат : AAC
Формат/Информация : Advanced Audio Codec
Профиль формата : LC
Идентификатор кодека : 40
Продолжительность : 27 м. 5 с.
Вид битрейта : Переменный
Битрейт : 192 Кбит/сек
Максимальный битрейт : 196 Кбит/сек
Каналы : 2 канала
Расположение каналов : Front: L R
Частота : 48,0 КГц
Частота кадров : 46,875 кадров/сек (1024 spf)
Метод сжатия : С потерями
Размер потока : 37,2 Мбайт (11%)
Язык : English
Дата кодирования : UTC 2018-04-08 18:59:51
Дата пометки : UTC 2018-04-08 18:59:51
[Profile] [PM]
Display posts:    
Reply to topic

Current time is: 20-Nov 05:06

All times are UTC + 3



You cannot post new topics in this forum
You cannot reply to topics in this forum
You cannot edit your posts in this forum
You cannot delete your posts in this forum
You cannot vote in polls in this forum
You cannot attach files in this forum
You cannot download files in this forum