Лара Крофт (Коллекция) / Lara Croft: Tomb Raidert: Collection (2001-2018) BDRip-AVC от Generalfilm

Reply to topic
 
Author Message

Monk ®

Gender: Male

Longevity: 1 year

Posts: 9115

Location: Казань

Post 15-May-2019 11:23

[Quote]

Лара Крофт (Коллекция) / Lara Croft: Tomb Raidert: Collection Год выпуска: 2001-2018
Жанр: Приключения, фэнтези, боевик, триллер, комикс
Выпущено: Великобритания, Германия, США, Япония, Paramount Pictures, Mutual Film Company
Режиссер: Саймон Уэст, Роар Утхауг
В ролях: Анджелина Джоли, Джон Войт, Иэн Глен, Ноа Тейлор, Дэниэл Крэйг, Ричард Джонсон, Крис Барри, Джулиан Райнд-Татт, Лесли Филлипс, Роберт Филлипс, Рэйчел Эпплтон, Генри Уиндэм, Дэвид Чунг, Дэвид К.С. Тсе, Оззи Юе
О фильме: Лара Крофт - весьма самостоятельная дочь эксцентричного искателя приключений, который пропал, едва она стала подростком. Теперь ей двадцать один, она бесцельно проживает свою жизнь, курьером рассекая на байке по забитым улицам восточного Лондона. Решительно настроенная пробиться сама, она отказывается брать на себя руководство глобальной империей отца, столь же категорично отвергая мысль о том, что он действительно пропал. Слыша советы о том, что ей нужно смириться с этим фактом и жить дальше после семи лет бесплодных поисков, Лара уже и сама не понимает, что же заставляет ее распутывать обстоятельства его таинственного исчезновения.
Качество: BDRip-AVC
Видео: AVC, 1024x428 (2.40:1), 1674 kbps, 23,976 fps, 0,159 bpp
Аудио: AC3, 6 ch, 448 Кбит/с, 48 kHz
Продолжительность: 01:40:32, 01:57:18, 01:57:50
Перевод: Дублированный
Субтитры: Русские
Навигация по главам: есть

Скриншоты



MediaInfo 1

General
Unique ID : 191308311912965231116132105406861447958 (0x8FECA401CA9C42F3A4117D64C9929316)
Complete name : E:Запись с твLara Croft Tomb Raider Trilogy 2001-2018 BDRip-AVC R.G.GeneralfilmLara Croft Tomb Raider.2001.BDRip-AVC.Rip.by.White Smoke.R.G.Generalfilm.mkv
Format : Matroska
Format version : Version 2
File size : 1.49 GiB
Duration : 1 h 40 min
Overall bit rate : 2 124 kb/s
Movie name : Lara Croft Tomb Raider.2001.BDRip-AVC.Rip.by.White Smoke.R.G.Generalfilm.mkv
Encoded date : UTC 2018-07-25 13:00:06
Writing application : mkvmerge v7.6.0 ('Garden of Dreams') 32bit built on Feb 11 2015 00:18:47
Writing library : libebml v1.3.1 + libmatroska v1.4.2
Cover : Yes
Attachments : cover.jpg
Video
ID : 1
Format : AVC
Format/Info : Advanced Video Codec
Format profile : High@L4.1
Format settings, CABAC : Yes
Format settings, ReFrames : 10 frames
Codec ID : V_MPEG4/ISO/AVC
Duration : 1 h 40 min
Bit rate : 1 674 kb/s
Width : 1 024 pixels
Height : 428 pixels
Display aspect ratio : 2.40:1
Frame rate mode : Constant
Frame rate : 23.976 (24000/1001) FPS
Color space : YUV
Chroma subsampling : 4:2:0
Bit depth : 8 bits
Scan type : Progressive
Bits/(Pixel*Frame) : 0.159
Stream size : 1.15 GiB (77%)
Writing library : x264 core 148 r2638 7599210
Encoding settings : cabac=1 / ref=10 / deblock=1:-2:-1 / analyse=0x3:0x113 / me=umh / subme=11 / psy=1 / psy_rd=0.00:0.15 / mixed_ref=1 / me_range=32 / chroma_me=1 / trellis=2 / 8x8dct=1 / cqm=0 / deadzone=21,11 / fast_pskip=0 / chroma_qp_offset=-3 / threads=6 / lookahead_threads=1 / sliced_threads=0 / nr=0 / decimate=0 / interlaced=0 / bluray_compat=0 / constrained_intra=0 / bframes=10 / b_pyramid=2 / b_adapt=2 / b_bias=0 / direct=1 / weightb=1 / open_gop=0 / weightp=2 / keyint=240 / keyint_min=23 / scenecut=40 / intra_refresh=0 / rc_lookahead=40 / rc=2pass / mbtree=1 / bitrate=1674 / ratetol=1.0 / qcomp=0.65 / qpmin=0 / qpmax=69 / qpstep=4 / cplxblur=20.0 / qblur=0.5 / vbv_maxrate=50000 / vbv_bufsize=65500 / nal_hrd=none / filler=0 / ip_ratio=1.40 / aq=1:1.00
Language : English
Default : Yes
Forced : No
Audio
ID : 2
Format : AC-3
Format/Info : Audio Coding 3
Mode extension : CM (complete main)
Format settings, Endianness : Big
Codec ID : A_AC3
Duration : 1 h 40 min
Bit rate mode : Constant
Bit rate : 448 kb/s
Channel(s) : 6 channels
Channel positions : Front: L C R, Side: L R, LFE
Sampling rate : 48.0 kHz
Frame rate : 31.250 FPS (1536 spf)
Compression mode : Lossy
Stream size : 322 MiB (21%)
Title : Rus
Language : Russian
Default : Yes
Forced : No
Text
ID : 3
Format : UTF-8
Codec ID : S_TEXT/UTF8
Codec ID/Info : UTF-8 Plain Text
Title : Rus
Language : Russian
Default : No
Forced : No
Menu
00:00:00.000 : :Chapter 01
00:07:22.817 : :Chapter 02
00:15:04.361 : :Chapter 03
00:23:16.353 : :Chapter 04
00:34:45.666 : :Chapter 05
00:43:10.546 : :Chapter 06
00:50:03.834 : :Chapter 07
00:59:46.124 : :Chapter 08
01:07:53.652 : :Chapter 09
01:15:58.845 : :Chapter 10
01:22:32.280 : :Chapter 11
01:31:22.894 : :Chapter 12

MediaInfo 2

General
Unique ID : 237652485590342376869068990161225474203 (0xB2CA342E92B8FD789AC2B28CDC4B609B)
Complete name : E:Запись с твLara Croft Tomb Raider Trilogy 2001-2018 BDRip-AVC R.G.GeneralfilmLara Croft Tomb Raider The Cradle of Life.2003.BDRip-AVC.Rip.by.White Smoke.R.G.Generalfilm.mkv
Format : Matroska
Format version : Version 2
File size : 1.71 GiB
Duration : 1 h 57 min
Overall bit rate : 2 088 kb/s
Movie name : Lara Croft Tomb Raider The Cradle of Life.2003.BDRip-AVC.Rip.by.White Smoke.R.G.Generalfilm.mkv
Encoded date : UTC 2018-07-25 16:10:30
Writing application : mkvmerge v7.6.0 ('Garden of Dreams') 32bit built on Feb 11 2015 00:18:47
Writing library : libebml v1.3.1 + libmatroska v1.4.2
Cover : Yes
Attachments : cover.jpg
Video
ID : 1
Format : AVC
Format/Info : Advanced Video Codec
Format profile : High@L4.1
Format settings, CABAC : Yes
Format settings, ReFrames : 10 frames
Codec ID : V_MPEG4/ISO/AVC
Duration : 1 h 57 min
Bit rate : 1 638 kb/s
Width : 1 024 pixels
Height : 428 pixels
Display aspect ratio : 2.40:1
Frame rate mode : Constant
Frame rate : 23.976 (24000/1001) FPS
Color space : YUV
Chroma subsampling : 4:2:0
Bit depth : 8 bits
Scan type : Progressive
Bits/(Pixel*Frame) : 0.156
Stream size : 1.31 GiB (77%)
Writing library : x264 core 148 r2638 7599210
Encoding settings : cabac=1 / ref=10 / deblock=1:-2:-1 / analyse=0x3:0x113 / me=umh / subme=11 / psy=1 / psy_rd=0.00:0.15 / mixed_ref=1 / me_range=32 / chroma_me=1 / trellis=2 / 8x8dct=1 / cqm=0 / deadzone=21,11 / fast_pskip=0 / chroma_qp_offset=-3 / threads=6 / lookahead_threads=1 / sliced_threads=0 / nr=0 / decimate=0 / interlaced=0 / bluray_compat=0 / constrained_intra=0 / bframes=10 / b_pyramid=2 / b_adapt=2 / b_bias=0 / direct=1 / weightb=1 / open_gop=0 / weightp=2 / keyint=240 / keyint_min=23 / scenecut=40 / intra_refresh=0 / rc_lookahead=40 / rc=2pass / mbtree=1 / bitrate=1638 / ratetol=1.0 / qcomp=0.65 / qpmin=0 / qpmax=69 / qpstep=4 / cplxblur=20.0 / qblur=0.5 / vbv_maxrate=50000 / vbv_bufsize=65500 / nal_hrd=none / filler=0 / ip_ratio=1.40 / aq=1:1.00
Language : English
Default : Yes
Forced : No
Audio
ID : 2
Format : AC-3
Format/Info : Audio Coding 3
Mode extension : CM (complete main)
Format settings, Endianness : Big
Codec ID : A_AC3
Duration : 1 h 57 min
Bit rate mode : Constant
Bit rate : 448 kb/s
Channel(s) : 6 channels
Channel positions : Front: L C R, Side: L R, LFE
Sampling rate : 48.0 kHz
Frame rate : 31.250 FPS (1536 spf)
Compression mode : Lossy
Stream size : 376 MiB (21%)
Title : Rus
Language : Russian
Default : Yes
Forced : No
Text
ID : 3
Format : UTF-8
Codec ID : S_TEXT/UTF8
Codec ID/Info : UTF-8 Plain Text
Title : Rus
Language : Russian
Default : No
Forced : No
Menu
00:00:00.000 : :Chapter 01
00:10:21.287 : :Chapter 02
00:16:53.137 : :Chapter 03
00:20:39.238 : :Chapter 04
00:27:42.077 : :Chapter 05
00:37:13.397 : :Chapter 06
00:42:44.144 : :Chapter 07
00:47:57.708 : :Chapter 08
00:56:08.531 : :Chapter 09
01:02:50.808 : :Chapter 10
01:10:01.197 : :Chapter 11
01:19:36.188 : :Chapter 12
01:27:25.740 : :Chapter 13
01:35:56.208 : :Chapter 14
01:40:22.516 : :Chapter 15
01:47:52.966 : :Chapter 16

MediaInfo 3

General
Unique ID : 246422913699294414722429349777639376137 (0xB96353AC49D43A9B94189383D15E8509)
Complete name : E:Запись с твLara Croft Tomb Raider Trilogy 2001-2018 BDRip-AVC R.G.GeneralfilmTomb.Raider.2018.BDRip-AVC.Rip.by.White Smoke.R.G.Generalfilm.mkv
Format : Matroska
Format version : Version 2
File size : 1.95 GiB
Duration : 1 h 57 min
Overall bit rate : 2 373 kb/s
Movie name : Tomb.Raider.2018.BDRip-AVC.Rip.by.White Smoke.R.G.Generalfilm.mkv
Encoded date : UTC 2018-07-26 10:48:59
Writing application : mkvmerge v7.6.0 ('Garden of Dreams') 32bit built on Feb 11 2015 00:18:47
Writing library : libebml v1.3.1 + libmatroska v1.4.2
Cover : Yes
Attachments : cover.jpg
Video
ID : 1
Format : AVC
Format/Info : Advanced Video Codec
Format profile : High@L4.1
Format settings, CABAC : Yes
Format settings, ReFrames : 10 frames
Codec ID : V_MPEG4/ISO/AVC
Duration : 1 h 57 min
Bit rate : 1 923 kb/s
Width : 1 024 pixels
Height : 428 pixels
Display aspect ratio : 2.40:1
Frame rate mode : Constant
Frame rate : 23.976 (24000/1001) FPS
Color space : YUV
Chroma subsampling : 4:2:0
Bit depth : 8 bits
Scan type : Progressive
Bits/(Pixel*Frame) : 0.183
Stream size : 1.55 GiB (79%)
Writing library : x264 core 148 r2638 7599210
Encoding settings : cabac=1 / ref=10 / deblock=1:-2:-1 / analyse=0x3:0x113 / me=umh / subme=11 / psy=1 / psy_rd=0.00:0.15 / mixed_ref=1 / me_range=32 / chroma_me=1 / trellis=2 / 8x8dct=1 / cqm=0 / deadzone=21,11 / fast_pskip=0 / chroma_qp_offset=-3 / threads=6 / lookahead_threads=1 / sliced_threads=0 / nr=0 / decimate=0 / interlaced=0 / bluray_compat=0 / constrained_intra=0 / bframes=10 / b_pyramid=2 / b_adapt=2 / b_bias=0 / direct=1 / weightb=1 / open_gop=0 / weightp=2 / keyint=240 / keyint_min=23 / scenecut=40 / intra_refresh=0 / rc_lookahead=40 / rc=2pass / mbtree=1 / bitrate=1923 / ratetol=1.0 / qcomp=0.65 / qpmin=0 / qpmax=69 / qpstep=4 / cplxblur=20.0 / qblur=0.5 / vbv_maxrate=50000 / vbv_bufsize=65500 / nal_hrd=none / filler=0 / ip_ratio=1.40 / aq=1:1.00
Language : English
Default : Yes
Forced : No
Audio
ID : 2
Format : AC-3
Format/Info : Audio Coding 3
Mode extension : CM (complete main)
Format settings, Endianness : Big
Codec ID : A_AC3
Duration : 1 h 57 min
Bit rate mode : Constant
Bit rate : 448 kb/s
Channel(s) : 6 channels
Channel positions : Front: L C R, Side: L R, LFE
Sampling rate : 48.0 kHz
Frame rate : 31.250 FPS (1536 spf)
Compression mode : Lossy
Stream size : 378 MiB (19%)
Title : Dub [License]
Language : Russian
Default : Yes
Forced : Yes
Text #1
ID : 3
Format : UTF-8
Codec ID : S_TEXT/UTF8
Codec ID/Info : UTF-8 Plain Text
Title : Forced
Language : Russian
Default : Yes
Forced : Yes
Text #2
ID : 4
Format : UTF-8
Codec ID : S_TEXT/UTF8
Codec ID/Info : UTF-8 Plain Text
Title : Full
Language : Russian
Default : No
Forced : No
Menu
00:00:00.000 : en:00:00:00.000
00:13:13.251 : en:00:13:13.251
00:24:04.234 : en:00:24:04.234
00:31:57.999 : en:00:31:57.999
00:39:57.061 : en:00:39:57.061
00:50:31.070 : en:00:50:31.070
01:04:49.844 : en:01:04:49.844
01:13:58.100 : en:01:13:58.100
01:20:17.396 : en:01:20:17.396
01:27:41.131 : en:01:27:41.131
01:38:41.624 : en:01:38:41.624
01:51:17.421 : en:01:51:17.421

Релиз

Лара Крофт: Расхитительница гробниц / Lara Croft Tomb Raider (2001)
Перевод: Дублированный [Лицензия]
Субтитры: русские (Полные)
Аудио: русский / AC3 / 5.1 / 48 kHz / 448 kbps / ||
Лара Крофт: Расхитительница гробниц 2 - Колыбель жизни / Lara Croft Tomb Raider: The Cradle of Life (2003)
Перевод: Дублированный [Лицензия]
Субтитры: русские (Полные)
Аудио: русский / AC3 / 5.1 / 48 kHz / 448 kbps / ||
Tomb Raider: Лара Крофт / Tomb Raider (2018)
Перевод: Дублированный [Лицензия]
Субтитры: русские (Полные)
Аудио: русский / AC3 / 5.1 / 48 kHz / 448 kbps / ||
White Smoke
Релиз-группа: Generalfilm

Содержание

Лара Крофт: Расхитительница гробниц / Lara Croft: Tomb Raider 2001
Лара Крофт: Расхитительница гробниц 2 – Колыбель жизни / Lara Croft Tomb Raider: The Cradle of Life 2003
Tomb Raider: Лара Крофт / Tomb Raider 2018

Интересно

Интересные факты:
- Пистолеты Лары в фильме — Heckler and Koch USP Match.
- В 1998 году Брент Фридман написал не увидевший свет сценарий «Лары Крофт: Расхитительницы гробниц». Одной из возможных причин стал грандиозный провал годом ранее в прокате фильма «Смертельная битва 2: Истребление», где Фридман был одним из авторов сценария.
- Лорд Крофт, отец Лары, первоначально имел имя Хеншингли (англ. Henshingly), но поменял его на Ричард в более поздних играх.
- Часть фильма была снята в Ангкоре, Камбоджа. Это первый с 1964 года (после «Лорда Джима») западный фильм со съёмками в этой стране.
- Внешний вид усадьбы Лары — «Hatfield House», огромное имение в графстве Хартфордшир, Англия.
- Для правдоподобности актёры в фильме говорят с неродным для них акцентом: американка Анджелина Джоли (Лара Крофт) — с английским, англичанин Дэниэл Крэйг (Алекс Уэст) — с американским, Йен Глен (Манфред Пауэлл), шотландец — с английским акцентом.
- Буддистская церемония, в которой принимает участие Лара (после сцены телефонного разговора с Пауэллом из Камбоджы), показана по-настоящему, и не является постановочной.
- Когда Лара звонит Брайсу из Камбоджи, он смотрит на остановленный кадр из детского анимационного сериала BBC под названием «The Clangers», который показывался по телевидению с 1969 по 1974 год.
- На хит U2 «Elevation» из саундтрека фильма в дальнейшем был снят видеоклип на тему «Расхитительницы гробниц», музыканты даже захотели пригласить для съёмок в нём Анджелину Джоли.
- Планеты, показанные в различных ракурсах, иллюстрируют приближение Парада планет без соблюдения реального масштаба.
- Хотя в фильме год не указывается, реальный Парад планет произошёл 3 мая 2000 года, примерно за год до выпуска фильма. Заметим, что в Расхитительнице гробниц Соединение начинается 15 мая.
- Успех фильма о Ларе Крофт сподвиг Land Rover на выпуск особой партии из 250 автомобилей Defender Tomb Raider LE. Все они по внешнему и внутреннему дизайну не отличались от автомобиля, на котором лихачила в фильме Анджелина Джоли.

Награды

Награды:
- 2002. Премия Американского Общества композиторов, авторов и издателей (ASCAP Film and Television Music Awards, США): Лучшая песня, исполненная в фильме,
- 2002. Музыкальная премия Американской организации по музыкальным правам (BMI Film and TV Awards),
- 2001. Премия Боги в серебре (Bogey Awards, Германия).
Номинации:
- 2002. Премия канала «MTV», США: Лучшая драка, Лучшая женская роль (Анджелина Джоли),
- 2002. Золотая малина, США: Худшая женская роль (Анджелина Джоли),
- 2002. Премия Сатурн (Академии научной фантастики, фэнтези и фильмов ужасов / Academy of Science Fiction, Fantasy and Horror Films, США): Лучшая актриса (Анджелина Джоли), Лучший научно-фантастический фильм, Лучшее специальное издание на DVD,
- 2002. Премия Выбор детей (Kids' Choice Awards, США): Лучший герой боевика (Анджелина Джоли),
- 2002. Премия Золотая лента (Организация звукорежиссеров художественных фильмов / Motion Picture Sound Editors, США): Лучший монтаж звуковых эффектов,
- 2001. Премия Выбор подростков (Teen Choice Awards, США): Лучшая актриса (Анджелина Джоли), Лучшая драма/приключенческий боевик,
- 2002. Каскадёрская премия Таурус (World Stunt Awards, США): Лучшая женщина-каскадёр.
Релиз от:
[Profile] [PM]
Display posts:    
Reply to topic

Current time is: 20-Nov 04:11

All times are UTC + 3



You cannot post new topics in this forum
You cannot reply to topics in this forum
You cannot edit your posts in this forum
You cannot delete your posts in this forum
You cannot vote in polls in this forum
You cannot attach files in this forum
You cannot download files in this forum