Голос. Дети [6 сезон: 1-12 выпуски из 12] (2019) HDTVRip от GeneralFilm

Reply to topic
 
Author Message

olegka7373 ®

Gender: Male

Longevity: 11 months 2 days

Posts: 219

Location: Россия, Новокузнецк

Post 15-Feb-2019 19:52

[Quote]

Голос. Дети - 6
Год выпуска: 2019
Жанр: ТВ-шоу, музыка
Выпущено: Россия, Первый канал, Красный квадрат
Ведущий: Дмитрий Нагиев, Аглая Шиловская
О фильме: C 15 февраля в шоу Голос дети новые наставники. В этот раз ими выступят Валерий Меладзе, Пелагея и Светлана Лобода. В шестом сезоне будут участвовать вокалисты, возраст которых не превышает 14 лет. В кастинге принимали участие не только российские, но и зарубежные вокалисты. В слепых прослушиваниях будет участвовать примерно 120 человек. В процессе слепых прослушиваний каждому из наставников нужно будет набрать команду из 15 человек. Во время поединков эти команды разобьют на тройки и из каждой тройки в следующий этап сможет попасть лишь один конкурсант.
Качество: HDTVRip
Видео: XviD, ~ 1800 Кбит/с, 720x400, 25 кадр/с
Аудио: Русский (AC3, 2 ch, 192 Кбит/с)
Продолжительность: 12 x ~ 01:40:00
Перевод: Не требуется
Субтитры: нет

Скриншоты


MediaInfo

Общее
Полное имя : D:Golos.Deti.6.sezon.2019.HDTVRip.GeneralFilm1.Golos.Deti.6.sezon.2019.HDTVRip.GeneralFilm.avi
Формат : AVI
Формат/Информация : Audio Video Interleave
Размер файла : 1,38 Гбайт
Продолжительность : 1 ч. 39 м.
Общий поток : 1981 Кбит/сек
Видео
Идентификатор : 0
Формат : MPEG-4 Visual
Профиль формата : Advanced Simple@L5
Параметр BVOP формата : 1
Параметр QPel формата : Нет
Параметр GMC формата : Без точки перехода
Параметр матрицы формата : Выборочная
Идентификатор кодека : XVID
Идентификатор кодека/Подсказка : XviD
Продолжительность : 1 ч. 39 м.
Битрейт : 1778 Кбит/сек
Ширина : 720 пикселей
Высота : 400 пикселей
Соотношение сторон : 16:9
Частота кадров : 25,000 кадров/сек
Цветовое пространство : YUV
Субдискретизация насыщенности : 4:2:0
Битовая глубина : 8 бит
Тип развёртки : Прогрессивная
Метод сжатия : С потерями
Бит/(Пиксели*Кадры) : 0.247
Размер потока : 1,24 Гбайт (90%)
Библиотека кодирования : XviD 1.2.1 (UTC 2008-12-04)
Аудио
Идентификатор : 1
Формат : AC-3
Формат/Информация : Audio Coding 3
Расширение режима : CM (complete main)
Параметр Endianness формата : Big
Идентификатор кодека : 2000
Продолжительность : 1 ч. 39 м.
Вид битрейта : Постоянный
Битрейт : 192 Кбит/сек
Каналы : 2 канала
Расположение каналов : Front: L R
Частота : 48,0 КГц
Частота кадров : 31,250 кадров/сек (1536 spf)
Битовая глубина : 16 бит
Метод сжатия : С потерями
Размер потока : 137 Мбайт (10%)
Выравнивание : Соединение по промежуткам
Продолжительность промежутка : 32 мс. (0,80 видеокадр)

Внимание! Раздача ведётся путём добавления новых серий

Раздача ведётся путём добавления новых серий, при каждом добавлении создаётся новый торрент. Чтобы начать докачку новой серии, пользователям необходимо сделать следующее:
- Остановить скачивание.
- Удалить старый торрент у себя из клиента (старые серии удалять не надо).
- Скачать новый торрент и запустить его у себя в клиенте вместо старого, при этом указать клиенту путь в старую папку куда и должно происходить скачивание новых серий.
Ваш клиент при этом должен произвести хеширование (проверку) старой папки (если не производит сам - помогите ему сделать это), и будет докачивать только те серии которых у вас ещё нет. Старые серии при этом не удаляются, а продолжают раздаваться!
Если вы уже удалили старые серии, то предотвратить повторную закачку старых серий можно, отжав галочку в соответствующих местах при запуске нового торрента. По возможности, желательно не удалять старые серии как можно дольше, чтобы релизер не столько продолжал раздавать старые серии, а смог сконцентрироваться на новых.
Релиз:
Огромная благодарность ValkiriaGF за созданный постер к раздаче


Last edited by olegka7373 on 2019-05-24 23:23; edited 2 times in total
[Profile] [PM]

nuz2016

Gender: Male

Longevity: 10 months 22 days

Posts: 10

Post 27-Apr-2019 13:57 (after 2 months 11 days)

[Quote]

Ждем здесь финального выпуска!
[Profile] [PM]

sosinsv79

Gender: Male

Longevity: 7 months 5 days

Posts: 3

Post 25-May-2019 18:59 (after 28 days)

[Quote]

8542Ждем здесь финального выпуска!
"Давно здесь сидим" ©Белое солнце пустыни
[Profile] [PM]
Display posts:    
Reply to topic

Current time is: 15-Oct 22:04

All times are UTC + 3



You cannot post new topics in this forum
You cannot reply to topics in this forum
You cannot edit your posts in this forum
You cannot delete your posts in this forum
You cannot vote in polls in this forum
You cannot attach files in this forum
You cannot download files in this forum