Немедленное реагирование [1-10 серии из 10] (2019) WEBRip | КПК

Reply to topic
 
Author Message

mjjhec ®

Gender: Male

Longevity: 10 months 29 days

Posts: 333

Location: СССР

Post 19-Jun-2019 16:50

[Quote]

Немедленное реагирование Год выпуска: 2019
Жанр: Детектив, триллер
Выпущено: Россия, Киностудия КИТ по заказу телеканала НТВ
Режиссер: Владимир Койфман
В ролях: Иван Батарев, Илья Алексеев, Максим Меркулов (II), Елена Радевич, Александр Конев, Анна Чурина, Виталий Коваленко, Роман Грибков, Денис Синявский, Андрей Гульнев, Георгий Маришин, Андрей Мокеев, Андрей Полищук, Андрей Аверков, Богдан Псел, Виталий Олечкин, Евгений Покрамович, Кирилл Балобан, Владлена Осичкина, Владимир Маслаков, Андрей Либенсон, Леон Словицкий, Денис Кириллов, Яков Петров, Дмитрий Миков.
О фильме: Капитан полиции Александр Осокин — командир группы Немедленного Реагирования. Прибыв на очередной экстренный вызов, группа оказывается под перекрёстным огнём наркоторговцев. В перестрелке получает тяжёлое ранение- прапорщик Порс, а старший лейтенант Зуев — погибает. Ситуация осложняется тем, что с места происшествия пропала сумка с крупной суммой денег. Осокину удаётся найти пропавшие деньги. Но перед ним встаёт моральный выбор: сдать деньги в полицию или использовать их, чтобы помочь близким.
Качество: WEBRip | КПК
Видео: Н.264, 640x360 (16:9), 25 fps, 400 Kbps
Аудио: AAC LC, 48 KHz, 2 ch, 128 Kbps
Продолжительность: 10 x ~00:48:00
Перевод / Озвучка: Не требуется

Скриншоты

MediaInfo

General
Complete name : F:\Rip\Nemedlennoe.reagirovanie.by.mjjhec\Nemedlennoe.reagirovanie.(03.seriya).2019.WEBRip.mp4
Format : MPEG-4
Format profile : Base Media
Codec ID : isom (isom/avc1/iso6)
File size : 187 MiB
Duration : 49 min 12 s
Overall bit rate mode : Variable
Overall bit rate : 532 kb/s
Encoded date : UTC 2019-06-16 10:55:09
Tagged date : UTC 2019-06-16 10:55:09
Video
ID : 1
Format : AVC
Format/Info : Advanced Video Codec
Format profile : High@L4.1
Format settings : CABAC / 10 Ref Frames
Format settings, CABAC : Yes
Format settings, Reference : 10 frames
Codec ID : avc1
Codec ID/Info : Advanced Video Coding
Duration : 49 min 12 s
Bit rate : 400 kb/s
Maximum bit rate : 1 159 kb/s
Width : 640 pixels
Height : 360 pixels
Display aspect ratio : 16:9
Frame rate mode : Constant
Frame rate : 25.000 FPS
Color space : YUV
Chroma subsampling : 4:2:0
Bit depth : 8 bits
Scan type : Progressive
Bits/(Pixel*Frame) : 0.069
Stream size : 141 MiB (75%)
Title : 264@GPAC0.5.2-DEV-rev248-g39d5978-master
Writing library : x264 core 146 r2538 121396c
Encoding settings : cabac=1 / ref=10 / deblock=1:-3:-3 / analyse=0x3:0x133 / me=umh / subme=11 / psy=1 / psy_rd=1.00:1.00 / mixed_ref=1 / me_range=48 / chroma_me=1 / trellis=2 / 8x8dct=1 / cqm=0 / deadzone=21,11 / fast_pskip=1 / chroma_qp_offset=-4 / threads=6 / lookahead_threads=1 / sliced_threads=0 / nr=0 / decimate=0 / interlaced=0 / bluray_compat=0 / constrained_intra=0 / bframes=10 / b_pyramid=2 / b_adapt=2 / b_bias=0 / direct=3 / weightb=1 / open_gop=0 / weightp=2 / keyint=240 / keyint_min=24 / scenecut=40 / intra_refresh=0 / rc_lookahead=60 / rc=2pass / mbtree=0 / bitrate=400 / ratetol=1.0 / qcomp=0.60 / qpmin=0 / qpmax=69 / qpstep=4 / cplxblur=20.0 / qblur=0.5 / vbv_maxrate=14000 / vbv_bufsize=14000 / nal_hrd=none / filler=0 / ip_ratio=1.40 / pb_ratio=1.30 / aq=1:1.00
Encoded date : UTC 2019-06-16 10:55:09
Tagged date : UTC 2019-06-16 10:55:13
Codec configuration box : avcC
Audio
ID : 2
Format : AAC LC
Format/Info : Advanced Audio Codec Low Complexity
Codec ID : mp4a-40-2
Duration : 49 min 12 s
Bit rate mode : Variable
Bit rate : 128 kb/s
Maximum bit rate : 134 kb/s
Channel(s) : 2 channels
Channel layout : L R
Sampling rate : 48.0 kHz
Frame rate : 46.875 FPS (1024 SPF)
Compression mode : Lossy
Stream size : 45.1 MiB (24%)
Encoded date : UTC 2019-06-16 09:53:13
Tagged date : UTC 2019-06-16 10:55:13
Релиз от:
[Profile] [PM]
Display posts:    
Reply to topic

Current time is: 15-Oct 22:08

All times are UTC + 3



You cannot post new topics in this forum
You cannot reply to topics in this forum
You cannot edit your posts in this forum
You cannot delete your posts in this forum
You cannot vote in polls in this forum
You cannot attach files in this forum
You cannot download files in this forum