Проект А / «A» gai wak (1983) HDRip-AVC от R.G.GeneralFilm | MVO

Reply to topic
 
Author Message

Bexram ®

Gender: Male

Longevity: 10 months 26 days

Posts: 5

Post 21-Jun-2019 20:44

[Quote]

Проект А / «A» gai wak Год выпуска: 1983
Жанр: Боевик
Выпущено: Гонконг, Authority Films, Golden Harvest Company Ltd., Paragon Films Ltd.
Режиссер: Джеки Чан, Саммо Хун
В ролях: Джеки Чан, Саммо Хун, Юэнь Бяо, Дик Вэй, Марс, Винни Вонг, Тай Бо, Нг Лонг Чунг, Хой Сан Ли, Хой-Шан Кван, Вай Вон, Фэт Ван, Уинг Мэн Куэнь, Хо Кай Ло, Харк-Сун Лау, У Ма, Фун Кинг-Ман и др
О фильме: Гонконг начала XX века. На китайском море свирепствуют пираты под предводительством зловещего пирата Ло. Все свои надежды правительство возлагает на специально разработанный план борьбы с пиратами под кодовым названием Проект А. Но Ло всегда на шаг опережает власти, подрывает их корабли, и проект оказывается под угрозой срыва. Его выполнение берут на себя борец береговой охраны по кличке Дракон и его товарищи.

Качество: HDRip-AVC
Видео: MPEG-4 AVC, 2510 Кбит/сек, 1024х436, 23,976 кадр/с, 0.234 bit/pixel,
Аудио: AC-3, 6 ch, 448 Кбит/сек
Продолжительность: 01:45:20
Перевод / Озвучка: Профессиональный [многоголосый]
Cубтитры: нет

Скриншоты

MediaInfo

Общее
Уникальный идентификатор : 216115718655171716669776536410735233045 (0xA2965F973682BB1F9B4EA9350FDBC815)
Полное имя : D:\Фильмы\Проект А\ОПЕРАЦИЯ А(MVO).1983.HDRip-AVC.by.Bexram.mkv
Формат : Matroska
Версия формата : Version 4
Размер файла : 2,18 Гбайт
Продолжительность : 1 ч. 45 м.
Общий поток : 2959 Кбит/сек
Название фильма : ОПЕРАЦИЯ А(MVO).1983.HDRip-AVC.by.Bexram
Дата кодирования : UTC 2015-03-29 03:35:56
Программа кодирования : mkvmerge v6.8.0 ('Theme for Great Cities') 64bit built on Mar 2 2014 21:34:26
Библиотека кодирования : libebml v1.3.0 + libmatroska v1.4.1
Видео
Идентификатор : 1
Формат : AVC
Формат/Информация : Advanced Video Codec
Профиль формата : High@L4.1
Настройки формата : CABAC / 12 Ref Frames
Параметр CABAC формата : Да
Параметр RefFrames формата : 12 кадров
Идентификатор кодека : V_MPEG4/ISO/AVC
Продолжительность : 1 ч. 45 м.
Битрейт : 2510 Кбит/сек
Ширина : 1024 пикселя
Высота : 436 пикселей
Соотношение сторон : 2,35:1
Режим частоты кадров : Постоянный
Частота кадров : 23,976 (24000/1001) кадра/сек
Цветовое пространство : YUV
Субдискретизация насыщенности : 4:2:0
Битовая глубина : 8 бит
Тип развёртки : Прогрессивная
Бит/(Пиксели*Кадры) : 0.234
Размер потока : 1,80 Гбайт (83%)
Библиотека кодирования : x264 core 142 r2431 ac76440
Настройки программы : cabac=1 / ref=12 / deblock=1:-3:-3 / analyse=0x3:0x113 / me=umh / subme=9 / psy=1 / psy_rd=1.00:0.00 / mixed_ref=1 / me_range=32 / chroma_me=1 / trellis=1 / 8x8dct=1 / cqm=0 / deadzone=21,11 / fast_pskip=1 / chroma_qp_offset=-2 / threads=6 / lookahead_threads=1 / sliced_threads=0 / nr=0 / decimate=1 / interlaced=0 / bluray_compat=0 / constrained_intra=0 / bframes=10 / b_pyramid=2 / b_adapt=2 / b_bias=10 / direct=1 / weightb=0 / open_gop=0 / weightp=2 / keyint=240 / keyint_min=23 / scenecut=40 / intra_refresh=0 / rc_lookahead=40 / rc=2pass / mbtree=1 / bitrate=2510 / ratetol=1.0 / qcomp=0.65 / qpmin=0 / qpmax=69 / qpstep=4 / cplxblur=20.0 / qblur=0.5 / ip_ratio=1.40 / aq=1:1.00
Язык : English
Default : Да
Forced : Нет
Аудио
Идентификатор : 2
Формат : AC-3
Формат/Информация : Audio Coding 3
Коммерческое название : Dolby Digital
Идентификатор кодека : A_AC3
Продолжительность : 1 ч. 45 м.
Вид битрейта : Постоянный
Битрейт : 448 Кбит/сек
Каналы : 6 каналов
ChannelLayout : L R C LFE Ls Rs
Частота : 48,0 КГц
Частота кадров : 31,250 кадров/сек (1536 SPF)
Битовая глубина : 16 бит
Метод сжатия : С потерями
Размер потока : 338 Мбайт (15%)
Заголовок : MVO
Язык : Russian
ServiceKind/String : Complete Main
Default : Да
Forced : Нет
Релиз от:
[Profile] [PM]
Display posts:    
Reply to topic

Current time is: 12-Nov 16:07

All times are UTC + 3



You cannot post new topics in this forum
You cannot reply to topics in this forum
You cannot edit your posts in this forum
You cannot delete your posts in this forum
You cannot vote in polls in this forum
You cannot attach files in this forum
You cannot download files in this forum