Семь пар нечистых (2018) WEBRip | КПК

Reply to topic
 
Author Message

mjjhec ®

Gender: Male

Longevity: 8 months 4 days

Posts: 279

Location: СССР

Post 24-Jun-2019 14:28

[Quote]

Семь пар нечистых Год выпуска: 2018
Жанр: Военный, драма
Выпущено: Россия, Киностудия "Yellow, Black and White"
Режиссер: Кирилл Астахов, Юрий Ильин
В ролях: Юрий Борисов (II), Мари Ворожи, Василий Мищенко, Тимофей Трибунцев, Михаил Евланов, Александр Вершинин, Евгений Куршинский, Микаэл Джанибекян, Бесо Гатаев, Кирилл Белевич-Оболенский, Александр Алёшкин, Максим Браматкин, Станислав Курач, Артём Мельничук, Александр Коротков (II), Александр Ковалёв (II), Вадим Утенков, Константин Спиркин, Егор Клеймёнов, Азамат Нигманов, Кирилл Белевич, Руслан Ягудин, Алексей Кашников, Александр Воробьёв.
О фильме: По мотивам одноименной повести Вениамина Каверина. 1941 г. Бунт на корабле — это всегда страшно. Особенно, если это бунт заключенных против охраны: из людей выплескивается ненависть, от которой некуда деться в открытом море. Этот бунт может привести к смерти не только охраны судна, но и матросов, и лейтенанта Сбоева, плывущего с секретным грузом, и случайной пассажирки — военврача Нины. Зачинщик бунта заключенный Аламасов продумал все детали, но не учел одного: корабль под названием «Онега» вышел в море 21 июня 1941 года, и когда мятеж почти увенчался успехом, судно начинают бомбить немецкие истребители.
Качество: WEBRip | КПК
Видео: Н.264, 640x272 (2.35:1), 25 fps, 400 Kbps
Аудио: AAC LC, 48 KHz, 2 ch, 128 Kbps
Продолжительность: 01:18:26
Перевод / Озвучка: Не требуется

Скриншоты

MediaInfo

General
Complete name : F:\Rip\Sem.par.nechistyh.2018.WEB-DLRip.by.mjjhec.mp4
Format : MPEG-4
Format profile : Base Media
Codec ID : isom (isom/avc1/iso6)
File size : 298 MiB
Duration : 1 h 18 min
Overall bit rate mode : Variable
Overall bit rate : 531 kb/s
Encoded date : UTC 2019-06-24 07:29:00
Tagged date : UTC 2019-06-24 07:29:00
Video
ID : 1
Format : AVC
Format/Info : Advanced Video Codec
Format profile : High@L4.1
Format settings : CABAC / 10 Ref Frames
Format settings, CABAC : Yes
Format settings, Reference : 10 frames
Codec ID : avc1
Codec ID/Info : Advanced Video Coding
Duration : 1 h 18 min
Bit rate : 400 kb/s
Maximum bit rate : 1 716 kb/s
Width : 640 pixels
Height : 272 pixels
Display aspect ratio : 2.35:1
Frame rate mode : Constant
Frame rate : 25.000 FPS
Color space : YUV
Chroma subsampling : 4:2:0
Bit depth : 8 bits
Scan type : Progressive
Bits/(Pixel*Frame) : 0.092
Stream size : 224 MiB (75%)
Title : 264@GPAC0.5.2-DEV-rev248-g39d5978-master
Writing library : x264 core 146 r2538 121396c
Encoding settings : cabac=1 / ref=10 / deblock=1:-3:-3 / analyse=0x3:0x133 / me=umh / subme=11 / psy=1 / psy_rd=1.00:1.00 / mixed_ref=1 / me_range=48 / chroma_me=1 / trellis=2 / 8x8dct=1 / cqm=0 / deadzone=21,11 / fast_pskip=1 / chroma_qp_offset=-4 / threads=6 / lookahead_threads=1 / sliced_threads=0 / nr=0 / decimate=0 / interlaced=0 / bluray_compat=0 / constrained_intra=0 / bframes=10 / b_pyramid=2 / b_adapt=2 / b_bias=0 / direct=3 / weightb=1 / open_gop=0 / weightp=2 / keyint=240 / keyint_min=24 / scenecut=40 / intra_refresh=0 / rc_lookahead=60 / rc=2pass / mbtree=0 / bitrate=400 / ratetol=1.0 / qcomp=0.60 / qpmin=0 / qpmax=69 / qpstep=4 / cplxblur=20.0 / qblur=0.5 / vbv_maxrate=14000 / vbv_bufsize=14000 / nal_hrd=none / filler=0 / ip_ratio=1.40 / pb_ratio=1.30 / aq=1:1.00
Encoded date : UTC 2019-06-24 07:29:00
Tagged date : UTC 2019-06-24 07:29:18
Codec configuration box : avcC
Audio
ID : 2
Format : AAC LC
Format/Info : Advanced Audio Codec Low Complexity
Codec ID : mp4a-40-2
Duration : 1 h 18 min
Bit rate mode : Variable
Bit rate : 128 kb/s
Maximum bit rate : 140 kb/s
Channel(s) : 2 channels
Channel layout : L R
Sampling rate : 48.0 kHz
Frame rate : 46.875 FPS (1024 SPF)
Compression mode : Lossy
Stream size : 71.8 MiB (24%)
Encoded date : UTC 2019-06-24 05:58:58
Tagged date : UTC 2019-06-24 07:29:18
Релиз от:
[Profile] [PM]

KRIEVS2011

Gender: Male

Longevity: 5 months 27 days

Posts: 10

Post 24-Jun-2019 19:46 (after 5 hours)

[Quote]

Очень хороший фильм
Огромное СПАСИБО !!!
[Profile] [PM]
Display posts:    
Reply to topic

Current time is: 21-Jul 12:13

All times are UTC + 3



You cannot post new topics in this forum
You cannot reply to topics in this forum
You cannot edit your posts in this forum
You cannot delete your posts in this forum
You cannot vote in polls in this forum
You cannot attach files in this forum
You cannot download files in this forum