Пиковая дама: Зазеркалье (2019) WEB-DLRip от GeneralFilm | iTunes

Reply to topic
 
Author Message

vsobbol ®

Gender: Male

Longevity: 8 months 5 days

Posts: 239

Location: Донецк

Post 24-Jun-2019 20:41

[Quote]

Пиковая дама: Зазеркалье
Год выпуска: 2019
Жанр: Ужасы
Выпущено: Россия, «RB Productions»
Режиссер: Александр Домогаров мл.
В ролях: Ангелина Стречина, Даниил Муравьев-Изотов, Владислав Коноплёв, Клаудиа Бочар, Игорь Яшанин, Валерий Панков, В. Канухин, А. Швиденкова
О фильме: Зловещий призрак Пиковой Дамы снова жаждет крови, и на этот раз его жертвами становятся воспитанники школы-интерната, расположенного в старинном особняке, окутанном мрачными слухами. Развлекая друг друга страшилками об убийствах детей, которые совершались в этом доме в позапрошлом столетии, подростки находят в заброшенном крыле здания таинственное зеркало, покрытое загадочными рисунками. Ради шутки, ученики проводят перед этим зеркалом мистический обряд вызова духа Пиковой Дамы и загадывают самые сокровенные желания, надеясь, что призрак их исполнит. Шутники не подозревают о том, что платой за выполнение каждой прихоти станут их собственные души — и что Пиковая Дама не успокоится, пока не получит их все...

Качество: WEB-DLRip
Видео: XviD build 73, 704x288 (2.40:1), 23.976 fps, 1441 Kbps (0.229 bit/pixel)
Аудио: 48.0 kHz, MP3, 2 ch, 128 kbps
Продолжительность: 01:23:19
Перевод / Озвучка: Не требуется [Русский]
Cубтитры: нет

Скриншоты

MediaInfo

General
Complete name : D:\Razdachi\Pikovaja.Dama.Zazerkalje.2019.WEB-DLRip.GeneralFilm.avi
Format : AVI
Format/Info : Audio Video Interleave
File size : 746 MiB
Duration : 1 h 23 min
Overall bit rate : 1 251 kb/s
Writing application : VirtualDubMod 1.5.10.3 | www.virtualdub-fr.org || (build 2550/release)
Writing library : VirtualDubMod build 2550/release
Video
ID : 0
Format : MPEG-4 Visual
Format profile : Advanced Simple@L5
Format settings : BVOP1 / Custom Matrix
Format settings, BVOP : 1
Format settings, QPel : No
Format settings, GMC : No warppoints
Format settings, Matrix : Custom
Codec ID : XVID
Codec ID/Hint : XviD
Duration : 1 h 23 min
Bit rate : 1 114 kb/s
Width : 704 pixels
Height : 288 pixels
Display aspect ratio : 2.40:1
Frame rate : 23.976 (24000/1001) FPS
Color space : YUV
Chroma subsampling : 4:2:0
Bit depth : 8 bits
Scan type : Progressive
Compression mode : Lossy
Bits/(Pixel*Frame) : 0.229
Stream size : 664 MiB (89%)
Writing library : XviD 73
Audio
ID : 1
Format : MPEG Audio
Format version : Version 1
Format profile : Layer 3
Codec ID : 55
Codec ID/Hint : MP3
Duration : 1 h 23 min
Bit rate mode : Constant
Bit rate : 128 kb/s
Channel(s) : 2 channels
Sampling rate : 48.0 kHz
Frame rate : 41.667 FPS (1152 SPF)
Compression mode : Lossy
Stream size : 76.3 MiB (10%)
Alignment : Aligned on interleaves
Interleave, duration : 42 ms (1.00 video frame)
Interleave, preload duratio : 504 ms
Writing library : LAME3.99r
Encoding settings : -m s -V 4 -q 2 -lowpass 17 -b 128
Релиз от:
[Profile] [PM]
Display posts:    
Reply to topic

Current time is: 21-Jul 12:26

All times are UTC + 3



You cannot post new topics in this forum
You cannot reply to topics in this forum
You cannot edit your posts in this forum
You cannot delete your posts in this forum
You cannot vote in polls in this forum
You cannot attach files in this forum
You cannot download files in this forum