Пьяная фирма [1-4 серии из 4] (2016) WEB-DLRip от Files-x

Reply to topic
 
Author Message

papa1951deda ®

Gender: Male

Longevity: 7 months 26 days

Posts: 268

Location: Казахстан

Post 25-Jun-2019 12:49

[Quote]

Пьяная фирма Год выпуска: 2016
Жанр: Комедия
Выпущено: Россия, «Russian World Studios»
Режиссер: Григорий Константинопольский
В ролях: Михаил Ефремов, Елизавета Боярская, Иван Макаревич, Виктория Исакова, Анна Михалкова, Марат Башаров, Юрий Колокольников, Ирина Апексимова, Алексей Кортнев, Александр Петров, Ингеборга Дапкунайте, Александр Стриженов, Андрей Мерзликин, Сергей Колтаков, Артём Ткаченко, Ян Цапник, Сергей Лобынцев, Диана Пентович, Виктория Толстоганова, Евгений Цыганов, Сергей Дмитриев (VII), Сергей Томанов, Артём Мельничук, Денис Кукояка
О фильме: Григорий Михайлович Штучный в прошлом опытный врач-реаниматолог, а ныне простой охранник. Он узнает, что его дочь (ее роль сыграла Елизавета Боярская), с которой он не общался много лет, нуждается в деньгах. К тому же она беременна. Чтобы помочь дочери, Григорий Михайлович Штучный начинает работать элитным «капельником», то есть выводит из запоя богатых клиентов, нуждающихся в его услугах. Так как дочь о существовании отца не подозревает, поэтому всячески удивляется, увидев конверт с нужной суммой у себя на столе.

Качество: WEB-DLRip
Видео: XviD, ~ 1600 Кбит/с, 720x400, 25 кадр/с
Аудио: AC3, 2 ch, 192 Кбит/с
Продолжительность: 4 x ~ 00:50:00
Перевод: Не требуется
Cубтитры: нет

Скриншоты

MediaInfo

General
Complete name : D:\моё видио\Piyanaya.firma.2016.WEB-DLRip. Files-x\01. Piyanaya.firma.2016.WEB-DLRip. Files-x.avi
Format : AVI
Format/Info : Audio Video Interleave
File size : 644 MiB
Duration : 50mn 0s
Overall bit rate : 1 802 Kbps
Writing application : VirtualDubMod 1.5.10.3 | www.virtualdub-fr.org || (build 2550/release)
Writing library : VirtualDubMod build 2550/release
Video
ID : 0
Format : MPEG-4 Visual
Format profile : Advanced Simple@L5
Format settings, BVOP : 1
Format settings, QPel : No
Format settings, GMC : No warppoints
Format settings, Matrix : Custom
Codec ID : XVID
Codec ID/Hint : XviD
Duration : 50mn 0s
Bit rate : 1 600 Kbps
Width : 720 pixels
Height : 304 pixels
Display aspect ratio : 2.35:1
Frame rate : 25.000 fps
Color space : YUV
Chroma subsampling : 4:2:0
Bit depth : 8 bits
Scan type : Progressive
Compression mode : Lossy
Bits/(Pixel*Frame) : 0.292
Stream size : 572 MiB (89%)
Writing library : XviD 73
Audio
ID : 1
Format : AC-3
Format/Info : Audio Coding 3
Mode extension : CM (complete main)
Format settings, Endianness : Big
Codec ID : 2000
Duration : 50mn 0s
Bit rate mode : Constant
Bit rate : 192 Kbps
Channel(s) : 2 channels
Channel positions : Front: L R
Sampling rate : 48.0 KHz
Bit depth : 16 bits
Compression mode : Lossy
Stream size : 68.7 MiB (11%)
Alignment : Split accross interleaves
Interleave, duration : 40 ms (1.00 video frame)
Interleave, preload duration : 500 ms
Релиз от:
[Profile] [PM]
Display posts:    
Reply to topic

Current time is: 17-Jul 15:24

All times are UTC + 3



You cannot post new topics in this forum
You cannot reply to topics in this forum
You cannot edit your posts in this forum
You cannot delete your posts in this forum
You cannot vote in polls in this forum
You cannot attach files in this forum
You cannot download files in this forum