Пьяная фирма [1-4 серии из 4] (2016) WEB-DLRip от GeneralFilm

Reply to topic
 
Author Message

vsobbol ®

Gender: Male

Longevity: 11 months 26 days

Posts: 334

Location: Донецк

Post 25-Jun-2019 19:35

[Quote]

Пьяная фирма
Год выпуска: 2016
Жанр: Комедия
Выпущено: Россия, Russian World Studios
Режиссер: Григорий Константинопольский
В ролях: Михаил Ефремов, Елизавета Боярская, Иван Макаревич, Виктория Исакова, Анна Михалкова, Марат Башаров, Юрий Колокольников, Ирина Апексимова, Алексей Кортнев, Александр Петров (II), Ингеборга Дапкунайте, Александр Стриженов, Андрей Мерзликин, Сергей Колтаков, Артём Ткаченко, Ян Цапник, Олег Фёдоров (IV), Сергей Лобынцев, Диана Пентович
О фильме: Бывший врач-реаниматолог не от хорошей жизни трудится охранником. Однажды он узнает, что его дочери, с которой он не общался много лет, срочно требуются деньги. Чтобы собрать нужную сумму в короткий срок, герой сериала «Пьяная фирма» начинает работать «капельником». Его задача — выводить из запоя очень богатых людей.

Качество: WEB-DLRip
Видео: XviD build 73, 720x304 (2.37:1), 25.000 fps, ~ 1350 Kbps (~ 0.248 bit/pixel)
Аудио: 48.0 kHz, AC3, 2/0 ch, 192 kbps
Продолжительность: 4 х ~ 00:50:00
Перевод / Озвучка: Не требуется [Русский]
Cубтитры: нет

Скриншоты

MediaInfo

General
Complete name : D:\Razdachi\Pjanaja.Firma.2016.WEB-DLRip.GeneralFilm\Pjanaja.Firma.e01.avi
Format : AVI
Format/Info : Audio Video Interleave
File size : 557 MiB
Duration : 50 min 0 s
Overall bit rate : 1 558 kb/s
Writing application : VirtualDubMod 1.5.10.3 | www.virtualdub-fr.org || (build 2550/release)
Writing library : VirtualDubMod build 2550/release
Video
ID : 0
Format : MPEG-4 Visual
Format profile : Advanced Simple@L5
Format settings : BVOP1 / Custom Matrix
Format settings, BVOP : 1
Format settings, QPel : No
Format settings, GMC : No warppoints
Format settings, Matrix : Custom
Codec ID : XVID
Codec ID/Hint : XviD
Duration : 50 min 0 s
Bit rate : 1 356 kb/s
Width : 720 pixels
Height : 304 pixels
Display aspect ratio : 2.35:1
Frame rate : 25.000 FPS
Color space : YUV
Chroma subsampling : 4:2:0
Bit depth : 8 bits
Scan type : Progressive
Compression mode : Lossy
Bits/(Pixel*Frame) : 0.248
Stream size : 485 MiB (87%)
Writing library : XviD 73
Audio
ID : 1
Format : AC-3
Format/Info : Audio Coding 3
Commercial name : Dolby Digital
Codec ID : 2000
Duration : 50 min 0 s
Bit rate mode : Constant
Bit rate : 192 kb/s
Channel(s) : 2 channels
Channel layout : L R
Sampling rate : 48.0 kHz
Frame rate : 31.250 FPS (1536 SPF)
Bit depth : 16 bits
Compression mode : Lossy
Stream size : 68.7 MiB (12%)
Alignment : Split accross interleaves
Interleave, duration : 40 ms (1.00 video frame)
Interleave, preload duratio : 500 ms
Service kind : Complete Main
Релиз от:
[Profile] [PM]
Display posts:    
Reply to topic

Current time is: 12-Nov 16:03

All times are UTC + 3



You cannot post new topics in this forum
You cannot reply to topics in this forum
You cannot edit your posts in this forum
You cannot delete your posts in this forum
You cannot vote in polls in this forum
You cannot attach files in this forum
You cannot download files in this forum