Два билета домой (2018) WEB-DLRip от Files-x

Reply to topic
 
Author Message

papa1951deda ®

Gender: Male

Longevity: 8 months

Posts: 270

Location: Казахстан

Post 03-Jul-2019 16:24

[Quote]

Два билета домой Год выпуска: 2018
Жанр: Драма
Выпущено: Россия, КиноДело
Режиссер: Дмитрий Месхиев
В ролях: Мария Скуратова, Сергей Гармаш, Камиль Хардин, Евгений Ткачук, Наталья Суркова, Ирина Рахманова, Ирина Розанова, Роман Агеев
О фильме: Люба Васнецова живёт в провинциальном интернате, мечтает поскорее его закончить, уехать в Санкт-Петербург и стать стюардессой. Будущее кажется прекрасным — после окончания интерната ей вручают ключи от квартиры, впереди новая жизнь. Но в день своего выпускного она узнаёт, что она не круглая сирота — её отец жив, а не погиб, как рассказывали ей раньше. Потрясенная девушка решает его найти...
Качество: WEB-DLRip
Видео: XviD, ~ 1 780 Кбит/с, 720x400, 25 кадр/с
Аудио: AC3, 2 ch, ~192 Кбит/с
Продолжительность: 01:34:00
Перевод / Озвучка: Не требуется [Русский]
Cубтитры: нет

Скриншоты


MediaInfo

eneral
Complete name : H:\fiiles x\Dva.bileta.domoy.2018.WEB-DLRip. Files-x.avi
Format : AVI
Format/Info : Audio Video Interleave
File size : 1.30 GiB
Duration : 1h 34mn
Overall bit rate : 1 982 Kbps
Writing application : VirtualDubMod 1.5.10.3 | www.virtualdub-fr.org || (build 2550/release)
Writing library : VirtualDubMod build 2550/release
Video
ID : 0
Format : MPEG-4 Visual
Format profile : Advanced Simple@L5
Format settings, BVOP : 1
Format settings, QPel : No
Format settings, GMC : No warppoints
Format settings, Matrix : Custom
Codec ID : XVID
Codec ID/Hint : XviD
Duration : 1h 34mn
Bit rate : 1 780 Kbps
Width : 720 pixels
Height : 400 pixels
Display aspect ratio : 16:9
Frame rate : 25.000 fps
Color space : YUV
Chroma subsampling : 4:2:0
Bit depth : 8 bits
Scan type : Progressive
Compression mode : Lossy
Bits/(Pixel*Frame) : 0.247
Stream size : 1.17 GiB (90%)
Writing library : XviD 73
Audio
ID : 1
Format : AC-3
Format/Info : Audio Coding 3
Mode extension : CM (complete main)
Codec ID : 2000
Duration : 1h 34mn
Bit rate mode : Constant
Bit rate : 192 Kbps
Channel(s) : 2 channels
Channel positions : Front: L R
Sampling rate : 48.0 KHz
Bit depth : 16 bits
Compression mode : Lossy
Stream size : 129 MiB (10%)
Alignment : Split accross interleaves
Interleave, duration : 40 ms (1.00 video frame)
Interleave, preload duration : 500 ms
Релиз от:
[Profile] [PM]
Display posts:    
Reply to topic

Current time is: 21-Jul 12:11

All times are UTC + 3



You cannot post new topics in this forum
You cannot reply to topics in this forum
You cannot edit your posts in this forum
You cannot delete your posts in this forum
You cannot vote in polls in this forum
You cannot attach files in this forum
You cannot download files in this forum