Discovery. Затерянные викинги Америки / America's Lost Vikings [1-6 серии из 6] (2019) HDTVRip 720p от Starik60

Reply to topic
 
Author Message

Starik60 ®

Gender: Male

Longevity: 11 months 3 days

Posts: 171

Location: Москва, Россия

Post 09-Jul-2019 09:33

[Quote]

Затерянные викинги Америки / America's Lost Vikings
Год выпуска: 2019
Жанр: Документальный, расследование, история
Выпущено: США, Discovery Channel HD
В ролях: Майкл Арбутнот, Блю Нельсон
О фильме: Возможно ли, что викинги открыли Америку за сотни лет до Христофора Колумба или прибытия «Мейфлауэра»? Появляется всё больше подтверждений, что они не просто достигли Америки, но обосновались на континенте и успешно на нем проживали. Чтобы подтвердить эту теорию, команда «охотников за викингами» отправляется в Америку на поиски доказательств. Они также пытаются проверить, были ли у викингов возможности для открытия новых земель? Мог ли корабль скандинавов так долго находиться в море? Конфликтовали ли они с американскими индейцами? Программа исследует и другие вопросы в попытке пролить свет на эту неизвестную главу американской истории.

Качество: HDTVRip 720p
Видео: MPEG-4 AVC, ~ 4000 Кбит/с, 1280x720
Аудио: MP2, 2 ch, 384 Кбит/с
Продолжительность: 6 x ~ 00:44:00
Перевод: Профессиональный (двухголосый, закадровый)

Скриншоты

[

MediaInfo

General
Unique ID : 218430620157487424222044548734473262865 (0xA454350BED402974AF279380F630D711)
Complete name : G:\Раздачи 2\Затерянные викинги Америки HDTVRip 720p Starik60\01 Затерянные викинги Америки by Starik60.mkv
Format : Matroska
Format version : Version 4 / Version 2
File size : 1.33 GiB
Duration : 43 min 29 s
Overall bit rate mode : Constant
Overall bit rate : 4 382 kb/s
Encoded date : UTC 2019-07-08 17:50:12
Writing application : mkvmerge v7.8.0 ('River Man') 64bit built on Mar 27 2015 16:31:37
Writing library : libebml v1.3.1 + libmatroska v1.4.2 / Lavf54.63.104
Cover : Yes
Attachments : cover1.jpg
Video
ID : 1
Format : AVC
Format/Info : Advanced Video Codec
Format profile : High@L4.1
Format settings : CABAC / 3 Ref Frames
Format settings, CABAC : Yes
Format settings, ReFrames : 3 frames
Codec ID : V_MPEG4/ISO/AVC
Duration : 43 min 29 s
Bit rate mode : Constant
Bit rate : 4 000 kb/s
Width : 1 280 pixels
Height : 720 pixels
Display aspect ratio : 16:9
Frame rate mode : Constant
Frame rate : 50.000 FPS
Standard : PAL
Color space : YUV
Chroma subsampling : 4:2:0
Bit depth : 8 bits
Scan type : Progressive
Bits/(Pixel*Frame) : 0.087
Stream size : 1.21 GiB (91%)
Default : No
Forced : No
Color range : Limited
Color primaries : BT.709
Transfer characteristics : BT.709
Matrix coefficients : BT.709
Audio
ID : 2
Format : MPEG Audio
Format version : Version 1
Format profile : Layer 2
Codec ID : A_MPEG/L2
Codec ID/Hint : MP2
Duration : 43 min 28 s
Bit rate mode : Constant
Bit rate : 384 kb/s
Channel(s) : 2 channels
Sampling rate : 48.0 kHz
Frame rate : 41.667 FPS (1152 SPF)
Compression mode : Lossy
Delay relative to video : 12 ms
Stream size : 119 MiB (9%)
Language : English
Default : Yes
Forced : No

Название серий

01. Опередившие Колумба.
02. Тайны морских разбойников.
03. Война в Новом Свете.
04. Призраки Великих озёр.
05. Проклятие острова смерти.
06. Загадка Аляски.
Благодарю за отличный постер ValkiriaGF
Релиз от:
[Profile] [PM]
Display posts:    
Reply to topic

Current time is: 15-Oct 22:42

All times are UTC + 3



You cannot post new topics in this forum
You cannot reply to topics in this forum
You cannot edit your posts in this forum
You cannot delete your posts in this forum
You cannot vote in polls in this forum
You cannot attach files in this forum
You cannot download files in this forum