Бегство рогатых викингов (2018) WEB-DL 1080p | iTunes

Reply to topic
 
Author Message

Monk ®

Gender: Male

Longevity: 8 months 6 days

Posts: 7494

Location: Казань

Post 11-Jul-2019 10:44

[Quote]

Бегство рогатых викингов Год выпуска: 2018
Жанр: Семейный, комедия, детский, приключения
Выпущено: Россия, Ассоциация НП «КОТ»
Режиссер: Илья Белостоцкий
В ролях: Евгений Олещук, Илья Плясухин, Даша Чистякова, Мирослав Быков, Никита Смирнов, Никита Липунов, Алексей Ломакин, Алина Бабушкина, Артём Кожевников, Андрей Лауфер
О фильме: Ещё один день, и Джонни Воробьёву исполнится девять лет. Тогда он наконец-то освободится от своего летнего «рабства» в летнем лагере под присмотром несносной старшей сестры и сможет спокойно проводить каникулы с своими друзьями. Но Джонни даёт благородное обещание остановить зловредного Тольку Самохина и его банду рогатых викингов и прекратить их набеги на ребятишек по всей округе.
Качество: WEB-DL 1080p
Видео: MPEG-4 AVC, 5039 Кбит/с, 1920х1080, 24 кадр/с
Аудио: АС3, 6 ch, 384 Кбит/с
Продолжительность: 01:10:18
Перевод: Не требуется [iTunes]

Скриншоты



MediaInfo

Общее
Уникальный идентификатор : 222188192095816067141089271533004158716 (0xA727E3A589BAEA93AC9C4AAC3B3876FC)
Полное имя : D:\ФИЛЬМЫ\BEGSTVO_RW_2018_WEB_DL_1080p-BLUEBIRD.mkv
Формат : Matroska
Версия формата : Version 4 / Version 2
Размер файла : 2,72 Гбайт
Продолжительность : 1 ч. 10 м.
Общий поток : 5533 Кбит/сек
Название фильма : BEGSTVO_RW_2018_WEB_DL_1080p-BLUEBIRD
Дата кодирования : UTC 2019-07-10 18:16:57
Программа кодирования : mkvmerge v6.9.1 ('Blue Panther') 32bit built on Apr 18 2014 18:15:44
Библиотека кодирования : libebml v1.3.0 + libmatroska v1.4.1
Обложка : Yes
Attachments : cover.png
Видео
Идентификатор : 1
Формат : AVC
Формат/Информация : Advanced Video Codec
Профиль формата : High@L4
Настройки формата : CABAC / 4 Ref Frames
Параметр CABAC формата : Да
Параметр RefFrames формата : 4 кадра
Идентификатор кодека : V_MPEG4/ISO/AVC
Продолжительность : 1 ч. 10 м.
Битрейт : 5039 Кбит/сек
Ширина : 1920 пикселей
Высота : 1080 пикселей
Соотношение сторон : 16:9
Режим частоты кадров : Постоянный
Частота кадров : 24,000 кадра/сек
Цветовое пространство : YUV
Субдискретизация насыщенности : 4:2:0
Битовая глубина : 8 бит
Тип развёртки : Прогрессивная
Бит/(Пиксели*Кадры) : 0.101
Размер потока : 2,47 Гбайт (91%)
Заголовок : BEGSTVO_RW_2018_WEB_DL_1080p-BLUEBIRD
Язык : English
Default : Да
Forced : Нет
Цветовой диапазон : Limited
Основные цвета : BT.709
Характеристики трансфера : BT.709
Коэффициенты матрицы : BT.709
Аудио
Идентификатор : 2
Формат : AC-3
Формат/Информация : Audio Coding 3
Идентификатор кодека : A_AC3
Продолжительность : 1 ч. 10 м.
Вид битрейта : Постоянный
Битрейт : 384 Кбит/сек
Каналы : 6 каналов
Расположение каналов : Front: L C R, Side: L R, LFE
Частота : 48,0 КГц
Частота кадров : 31,250 кадров/сек (1536 SPF)
Битовая глубина : 16 бит
Метод сжатия : С потерями
Размер потока : 193 Мбайт (7%)
Заголовок : [ORIGINAL] DD 5.1 @ 384 kbps (iTunes)
Язык : Russian
ServiceKind/String : Complete Main
Default : Да
Forced : Нет
Меню
00:00:00.000 : en:Глава 1
00:08:55.000 : en:Глава 2
00:17:28.041 : en:Глава 3
00:25:43.041 : en:Глава 4
00:34:43.749 : en:Глава 5
00:42:58.249 : en:Глава 6
00:51:46.249 : en:Глава 7
01:00:15.290 : en:Глава 8
[Profile] [PM]
Display posts:    
Reply to topic

Current time is: 21-Jul 12:12

All times are UTC + 3



You cannot post new topics in this forum
You cannot reply to topics in this forum
You cannot edit your posts in this forum
You cannot delete your posts in this forum
You cannot vote in polls in this forum
You cannot attach files in this forum
You cannot download files in this forum