Бегство рогатых викингов (2018) WEB-DLRip от GeneralFilm | iTunes

Reply to topic
 
Author Message

olegka7373 ®

Gender: Male

Longevity: 8 months 8 days

Posts: 161

Location: Россия, Новокузнецк

Post 11-Jul-2019 12:35

[Quote]

Бегство рогатых викингов Год выпуска: 2018
Жанр: Семейный, комедия, детский, приключения
Выпущено: Россия, Ассоциация НП «КОТ»
Режиссер: Илья Белостоцкий
В ролях: Евгений Олещук, Илья Плясухин, Даша Чистякова, Мирослав Быков, Никита Смирнов, Никита Липунов, Алексей Ломакин, Алина Бабушкина, Артём Кожевников, Андрей Лауфер
О фильме: Ещё один день, и Джонни Воробьёву исполнится девять лет. Тогда он наконец-то освободится от своего летнего «рабства» в летнем лагере под присмотром несносной старшей сестры и сможет спокойно проводить каникулы с своими друзьями. Но Джонни даёт благородное обещание остановить зловредного Тольку Самохина и его банду рогатых викингов и прекратить их набеги на ребятишек по всей округе.

Качество: WEB-DLRip
Видео: XviD, 1007 Кбит/с, 720x400, 24 кадр/с
Аудио: AC3, 6 ch, 384 Кбит/с
Продолжительность: 01:10:18
Перевод: Не требуется [iTunes]
Субтитры: Нет

Скриншоты


MediaInfo

Общее
Полное имя : D:\Begstvo rogatyh vikingov. WEB-DLRip. GeneralFilm.avi
Формат : AVI
Формат/Информация : Audio Video Interleave
Размер файла : 704 Мбайт
Продолжительность : 1 ч. 10 м.
Общий поток : 1401 Кбит/сек
Программа кодирования : VirtualDubMod 1.5.10.3 | www.virtualdub-fr.org || (build 2550/release)
Библиотека кодирования : VirtualDubMod build 2550/release
Видео
Идентификатор : 0
Формат : MPEG-4 Visual
Профиль формата : Advanced Simple@L5
Параметр BVOP формата : 1
Параметр QPel формата : Нет
Параметр GMC формата : Без точки перехода
Параметр матрицы формата : Выборочная
Идентификатор кодека : XVID
Идентификатор кодека/Подсказка : XviD
Продолжительность : 1 ч. 10 м.
Битрейт : 1007 Кбит/сек
Ширина : 720 пикселей
Высота : 400 пикселей
Соотношение сторон : 16:9
Частота кадров : 24,000 кадра/сек
Цветовое пространство : YUV
Субдискретизация насыщенности : 4:2:0
Битовая глубина : 8 бит
Тип развёртки : Прогрессивная
Метод сжатия : С потерями
Бит/(Пиксели*Кадры) : 0.146
Размер потока : 507 Мбайт (72%)
Библиотека кодирования : XviD 1.2.1 (UTC 2008-12-04)
Аудио
Идентификатор : 1
Формат : AC-3
Формат/Информация : Audio Coding 3
Расширение режима : CM (complete main)
Параметр Endianness формата : Big
Идентификатор кодека : 2000
Продолжительность : 1 ч. 10 м.
Вид битрейта : Постоянный
Битрейт : 384 Кбит/сек
Каналы : 6 каналов
Расположение каналов : Front: L C R, Side: L R, LFE
Частота : 48,0 КГц
Частота кадров : 31,250 кадров/сек (1536 spf)
Битовая глубина : 16 бит
Метод сжатия : С потерями
Размер потока : 193 Мбайт (27%)
Выравнивание : Разделение по промежуткам
Продолжительность промежутка : 42 мс. (1,00 видеокадр)
Время предзагрузки промежутка : 500 мс.
Релиз:
[Profile] [PM]
Display posts:    
Reply to topic

Current time is: 21-Jul 12:42

All times are UTC + 3



You cannot post new topics in this forum
You cannot reply to topics in this forum
You cannot edit your posts in this forum
You cannot delete your posts in this forum
You cannot vote in polls in this forum
You cannot attach files in this forum
You cannot download files in this forum