Рокетмен / Rocketman (2019) BDRip 1080p | Лицензия

Reply to topic
 
Author Message

Monk ®

Gender: Male

Longevity: 11 months 1 day

Posts: 8973

Location: Казань

Post 11-Jul-2019 13:23

[Quote]

Рокетмен / Rocketman Год выпуска: 2019
Жанр: Мюзикл, драма, биография, музыка
Выпущено: Великобритания, США, Marv Films, Marv Studios, New Republic Pictures
Режиссер: Декстер Флетчер
В ролях: Тэрон Эджертон, Джейми Белл, Ричард Мэдден, Брайс Даллас Ховард, Джемма Джонс, Стивен Макинтош, Том Беннетт, Мэтью Иллесли, Кит Коннор, Чарли Роу
О фильме: История превращения застенчивого парня Реджинальда Дуайта, талантливейшего пианиста из маленького городка, в суперзвезду и культовую фигуру мировой поп-музыки Элтона Джона.
Качество: BDRip 1080p
Видео: MPEG-4 AVC, 9014 Kбит/с, 1920x804
Аудио: Русский, английский (AC3, 6 ch, 640 Кбит/с)
Продолжительность: 02:01:17
Перевод: Дублированный [Лицензия]
Субтитры: Русские, английские

Скриншоты



MediaInfo

General
Unique ID : 313465098350737090732073503185807618995 (0xEBD32E93D7ADC5986D50DACD271C33B3)
Complete name : D:\Video111\Rocketman.2019.BDRip.1080p.seleZen.mkv
Format : Matroska
Format version : Version 4
File size : 8.72 GiB
Duration : 2 h 1 min
Overall bit rate : 10.3 Mb/s
Movie name : Rocketman 2019 from селезень
Encoded date : UTC 2019-08-18 20:20:53
Writing application : mkvmerge v22.0.0 ('At The End Of The World') 64-bit
Writing library : libebml v1.3.5 + libmatroska v1.4.8
Video
ID : 1
Format : AVC
Format/Info : Advanced Video Codec
Format profile : High@L4.1
Format settings : CABAC / 4 Ref Frames
Format settings, CABAC : Yes
Format settings, Reference : 4 frames
Codec ID : V_MPEG4/ISO/AVC
Duration : 2 h 1 min
Bit rate : 9 014 kb/s
Width : 1 920 pixels
Height : 804 pixels
Display aspect ratio : 2.40:1
Frame rate mode : Constant
Frame rate : 23.976 (24000/1001) FPS
Color space : YUV
Chroma subsampling : 4:2:0
Bit depth : 8 bits
Scan type : Progressive
Bits/(Pixel*Frame) : 0.244
Stream size : 7.64 GiB (88%)
Title : CHD
Writing library : x264 core 157 r2867+150 7e91e0e t_mod_Custom_2 [8-bit@all X86_64]
Encoding settings : cabac=1 / ref=4 / deblock=1:-3:-3 / analyse=0x3:0x133 / me=umh / subme=11 / psy=1 / fade_compensate=0.00 / psy_rd=1.00:0.00 / mixed_ref=1 / me_range=64 / chroma_me=1 / trellis=2 / 8x8dct=1 / cqm=0 / deadzone=21,11 / fast_pskip=0 / chroma_qp_offset=-3 / threads=24 / lookahead_threads=4 / sliced_threads=0 / nr=0 / decimate=1 / interlaced=0 / bluray_compat=0 / constrained_intra=0 / fgo=0 / bframes=8 / b_pyramid=2 / b_adapt=2 / b_bias=0 / direct=3 / weightb=1 / open_gop=0 / weightp=2 / keyint=250 / keyint_min=23 / scenecut=40 / intra_refresh=0 / rc=crf / mbtree=0 / crf=18.0000 / qcomp=0.70 / qpmin=0:0:0 / qpmax=69:69:69 / qpstep=4 / ip_ratio=1.40 / pb_ratio=1.30 / aq=3:1.00 / aq-sensitivity=10.00 / aq-factor=1.00:1.00:1.00 / aq2=0 / aq3=0
Language : English
Default : Yes
Forced : No
Audio #1
ID : 2
Format : AC-3
Format/Info : Audio Coding 3
Commercial name : Dolby Digital
Codec ID : A_AC3
Duration : 2 h 1 min
Bit rate mode : Constant
Bit rate : 640 kb/s
Channel(s) : 6 channels
Channel layout : L R C LFE Ls Rs
Sampling rate : 48.0 kHz
Frame rate : 31.250 FPS (1536 SPF)
Bit depth : 16 bits
Compression mode : Lossy
Stream size : 555 MiB (6%)
Title : Dub [License]
Language : Russian
Service kind : Complete Main
Default : Yes
Forced : Yes
Audio #2
ID : 3
Format : AC-3
Format/Info : Audio Coding 3
Commercial name : Dolby Digital
Codec ID : A_AC3
Duration : 2 h 1 min
Bit rate mode : Constant
Bit rate : 640 kb/s
Channel(s) : 6 channels
Channel layout : L R C LFE Ls Rs
Sampling rate : 48.0 kHz
Frame rate : 31.250 FPS (1536 SPF)
Bit depth : 16 bits
Compression mode : Lossy
Stream size : 555 MiB (6%)
Title : Original
Language : English
Service kind : Complete Main
Default : No
Forced : No
Text #1
ID : 4
Format : UTF-8
Codec ID : S_TEXT/UTF8
Codec ID/Info : UTF-8 Plain Text
Duration : 1 h 53 min
Bit rate : 1 b/s
Count of elements : 29
Stream size : 1.58 KiB (0%)
Title : Forced
Language : Russian
Default : Yes
Forced : Yes
Text #2
ID : 5
Format : UTF-8
Codec ID : S_TEXT/UTF8
Codec ID/Info : UTF-8 Plain Text
Duration : 1 h 59 min
Bit rate : 73 b/s
Count of elements : 1359
Stream size : 64.5 KiB (0%)
Title : Full
Language : Russian
Default : No
Forced : No
Text #3
ID : 6
Format : UTF-8
Codec ID : S_TEXT/UTF8
Codec ID/Info : UTF-8 Plain Text
Duration : 1 h 50 min
Bit rate : 50 b/s
Count of elements : 1314
Stream size : 41.3 KiB (0%)
Title : Full
Language : English
Default : No
Forced : No
Menu
00:00:00.000 : en:00:00:00.000
00:05:50.725 : en:00:05:50.725
00:11:20.805 : en:00:11:20.805
00:18:43.080 : en:00:18:43.080
00:22:39.858 : en:00:22:39.858
00:28:01.054 : en:00:28:01.054
00:34:21.393 : en:00:34:21.393
00:38:35.230 : en:00:38:35.230
00:42:52.445 : en:00:42:52.445
00:50:40.579 : en:00:50:40.579
00:57:30.906 : en:00:57:30.906
01:04:06.176 : en:01:04:06.176
01:09:28.915 : en:01:09:28.915
01:16:10.941 : en:01:16:10.941
01:24:44.079 : en:01:24:44.079
01:29:09.344 : en:01:29:09.344
01:35:22.383 : en:01:35:22.383
01:42:46.243 : en:01:42:46.243
01:51:11.832 : en:01:51:11.832
01:55:25.335 : en:01:55:25.335
[Profile] [PM]
Display posts:    
Reply to topic

Current time is: 15-Oct 22:22

All times are UTC + 3



You cannot post new topics in this forum
You cannot reply to topics in this forum
You cannot edit your posts in this forum
You cannot delete your posts in this forum
You cannot vote in polls in this forum
You cannot attach files in this forum
You cannot download files in this forum