Каратель / The Punisher [2 сезон: 1-13 серии из 13] (2019) WEBRip | КПК | LostFilm

Reply to topic
 
Author Message

mjjhec ®

Gender: Male

Longevity: 10 months 29 days

Posts: 333

Location: СССР

Post 11-Jul-2019 22:45

[Quote]

Каратель Год выпуска: 2019
Жанр: Фантастика, боевик, триллер, драма, криминал, приключения
Выпущено: США, Marvel Television
Режиссер: Энди Годдард, Том Шенклэнд, Антонио Кампос
В ролях: Джон Бернтал, Эмбер Роуз Рева, Эбон Мосс-Бакрак, Бен Барнс, Джейми Рэй Ньюман, Коби Фрумер, Пол Шульц, Майкл Натансон, Рипли Собо, Даниэль Уэббер.
О фильме: Бывший морпех Фрэнк Касл на время покончил с ролью линчевателя и отправился колесить по стране. Но мирная жизнь продлилась недолго — он ввязывается в дело, связанное с попыткой убийства девчонки-подростка. Втянутый в тайну, окружающую его новую знакомую и тех, кто на неё охотится, Касл снова подставляет себя под пули. Вступив в противостояние с новыми и старыми врагами, главный герой должен решить раз и навсегда, готов ли он окончательно перевоплотиться в Карателя.
Качество: WEBRip | КПК
Видео: Н.264, 640x360 (16:9), 23.976 fps, 400 Kbps
Аудио: AAC LC, 48 KHz, 2 ch, 128 Kbps
Продолжительность: 13 х ~00:55:00
Перевод / Озвучка: Профессиональный (многоголосый, закадровый) [LostFilm]

Скриншоты

MediaInfo

General
Complete name : F:\Rip\Karatel.S02.by.mjjhec\Marvels.The.Punisher.S02E03.WEBRip.mp4
Format : MPEG-4
Format profile : Base Media
Codec ID : isom (isom/avc1/iso6)
File size : 191 MiB
Duration : 50 min 21 s
Overall bit rate mode : Variable
Overall bit rate : 532 kb/s
Encoded date : UTC 2019-07-10 10:12:48
Tagged date : UTC 2019-07-10 10:12:48
Video
ID : 1
Format : AVC
Format/Info : Advanced Video Codec
Format profile : High@L4.1
Format settings : CABAC / 10 Ref Frames
Format settings, CABAC : Yes
Format settings, Reference : 10 frames
Codec ID : avc1
Codec ID/Info : Advanced Video Coding
Duration : 50 min 21 s
Bit rate : 400 kb/s
Maximum bit rate : 1 831 kb/s
Width : 640 pixels
Height : 360 pixels
Display aspect ratio : 16:9
Frame rate mode : Constant
Frame rate : 23.976 (24000/1001) FPS
Color space : YUV
Chroma subsampling : 4:2:0
Bit depth : 8 bits
Scan type : Progressive
Bits/(Pixel*Frame) : 0.072
Stream size : 144 MiB (75%)
Title : 264@GPAC0.5.2-DEV-rev248-g39d5978-master
Writing library : x264 core 146 r2538 121396c
Encoding settings : cabac=1 / ref=10 / deblock=1:-3:-3 / analyse=0x3:0x133 / me=umh / subme=11 / psy=1 / psy_rd=1.00:1.00 / mixed_ref=1 / me_range=48 / chroma_me=1 / trellis=2 / 8x8dct=1 / cqm=0 / deadzone=21,11 / fast_pskip=1 / chroma_qp_offset=-4 / threads=6 / lookahead_threads=1 / sliced_threads=0 / nr=0 / decimate=0 / interlaced=0 / bluray_compat=0 / constrained_intra=0 / bframes=10 / b_pyramid=2 / b_adapt=2 / b_bias=0 / direct=3 / weightb=1 / open_gop=0 / weightp=2 / keyint=240 / keyint_min=23 / scenecut=40 / intra_refresh=0 / rc_lookahead=60 / rc=2pass / mbtree=0 / bitrate=400 / ratetol=1.0 / qcomp=0.60 / qpmin=0 / qpmax=69 / qpstep=4 / cplxblur=20.0 / qblur=0.5 / vbv_maxrate=14000 / vbv_bufsize=14000 / nal_hrd=none / filler=0 / ip_ratio=1.40 / pb_ratio=1.30 / aq=1:1.00
Encoded date : UTC 2019-07-10 10:12:48
Tagged date : UTC 2019-07-10 10:12:52
Codec configuration box : avcC
Audio
ID : 2
Format : AAC LC
Format/Info : Advanced Audio Codec Low Complexity
Codec ID : mp4a-40-2
Duration : 50 min 21 s
Bit rate mode : Variable
Bit rate : 128 kb/s
Maximum bit rate : 138 kb/s
Channel(s) : 2 channels
Channel layout : L R
Sampling rate : 48.0 kHz
Frame rate : 46.875 FPS (1024 SPF)
Compression mode : Lossy
Stream size : 46.1 MiB (24%)
Encoded date : UTC 2019-07-10 09:23:27
Tagged date : UTC 2019-07-10 10:12:52
Релиз от:
[Profile] [PM]
Display posts:    
Reply to topic

Current time is: 15-Oct 21:24

All times are UTC + 3



You cannot post new topics in this forum
You cannot reply to topics in this forum
You cannot edit your posts in this forum
You cannot delete your posts in this forum
You cannot vote in polls in this forum
You cannot attach files in this forum
You cannot download files in this forum