Проект А 2 / «A» gai wak 2 (1987) HDRip-AVC от R.G.GeneralFilm | MVO

Reply to topic
 
Author Message

Bexram ®

Gender: Male

Longevity: 7 months 3 days

Posts: 5

Post 11-Jul-2019 23:34

[Quote]

Проект А 2 / «A» gai wak 2 Год выпуска: 1987
Жанр: Боевик
Выпущено: Гонконг, США, Authority Films, Golden Harvest Company Ltd., Paragon Films Ltd.
Режиссер: Джеки Чан
В ролях: Джеки Чан, Мэгги Чун, Розамунд Кван, Карина Лау, Дэвид Лам, Билл Тун, Рэй Лю, Реджина Кент, Йао Лин Чен, Кенни Хо и др
О фильме: Отважный Дракон Ма, прославившийся благодаря уничтожению пиратской шайки Ло Сэм По, получает новое назначение — его делают начальником округа. Основная причина этого назначения состоит в том, что власти сомневаются в чистоплотности его предшественника Чуна. В результате мастерски выполненной подставы Дракона арестовывают, но он не прекращает попыток разоблачить Чуна…

Качество: HDRip-AVC
Видео: V_MPEG4/ISO/AVC, 1978 Кбит/сек, 1024х436, 23,976 кадр/с, 0.185 bit/pixel
Аудио: AC-3, 6 каналов, 448 Кбит/сек
Продолжительность: 01:46:02
Перевод / Озвучка: Профессиональный [многоголосый]
Cубтитры: нет

Скриншоты

MediaInfo

Общее
Уникальный идентификатор : 210497056923127856022192456211758200144 (0x9E5C422DEE8A6F52BBACC93BC9423550)
Полное имя : D:\Фильмы\Проект А 2\Proekt.A.2.HDRip-AVC.by.Bexram.mkv
Формат : Matroska
Версия формата : Version 4
Размер файла : 1,80 Гбайт
Продолжительность : 1 ч. 46 м.
Общий поток : 2427 Кбит/сек
Название фильма : Proekt.A.2.HDRip-AVC.by.Bexram
Дата кодирования : UTC 2015-04-05 08:29:03
Программа кодирования : mkvmerge v6.8.0 ('Theme for Great Cities') 64bit built on Mar 2 2014 21:34:26
Библиотека кодирования : libebml v1.3.0 + libmatroska v1.4.1
Видео
Идентификатор : 3
Формат : AVC
Формат/Информация : Advanced Video Codec
Профиль формата : High@L4.1
Настройки формата : CABAC / 12 Ref Frames
Параметр CABAC формата : Да
Параметр RefFrames формата : 12 кадров
Идентификатор кодека : V_MPEG4/ISO/AVC
Продолжительность : 1 ч. 46 м.
Битрейт : 1978 Кбит/сек
Ширина : 1024 пикселя
Высота : 436 пикселей
Соотношение сторон : 2,35:1
Режим частоты кадров : Постоянный
Частота кадров : 23,976 (24000/1001) кадра/сек
Цветовое пространство : YUV
Субдискретизация насыщенности : 4:2:0
Битовая глубина : 8 бит
Тип развёртки : Прогрессивная
Бит/(Пиксели*Кадры) : 0.185
Размер потока : 1,43 Гбайт (80%)
Библиотека кодирования : x264 core 142 r2431 ac76440
Настройки программы : cabac=1 / ref=12 / deblock=1:-3:-3 / analyse=0x3:0x113 / me=umh / subme=9 / psy=1 / psy_rd=1.00:0.00 / mixed_ref=1 / me_range=32 / chroma_me=1 / trellis=1 / 8x8dct=1 / cqm=0 / deadzone=21,11 / fast_pskip=1 / chroma_qp_offset=-2 / threads=6 / lookahead_threads=1 / sliced_threads=0 / nr=0 / decimate=1 / interlaced=0 / bluray_compat=0 / constrained_intra=0 / bframes=10 / b_pyramid=2 / b_adapt=2 / b_bias=10 / direct=1 / weightb=0 / open_gop=0 / weightp=2 / keyint=240 / keyint_min=23 / scenecut=40 / intra_refresh=0 / rc_lookahead=40 / rc=2pass / mbtree=1 / bitrate=1978 / ratetol=1.0 / qcomp=0.65 / qpmin=0 / qpmax=69 / qpstep=4 / cplxblur=20.0 / qblur=0.5 / ip_ratio=1.40 / aq=1:1.00
Язык : English
Default : Да
Forced : Нет
Аудио
Идентификатор : 1
Формат : AC-3
Формат/Информация : Audio Coding 3
Коммерческое название : Dolby Digital
Идентификатор кодека : A_AC3
Продолжительность : 1 ч. 46 м.
Вид битрейта : Постоянный
Битрейт : 448 Кбит/сек
Каналы : 6 каналов
ChannelLayout : L R C LFE Ls Rs
Частота : 48,0 КГц
Частота кадров : 31,250 кадров/сек (1536 SPF)
Битовая глубина : 16 бит
Метод сжатия : С потерями
Размер потока : 340 Мбайт (18%)
Заголовок : DVO R5
Язык : Russian
ServiceKind/String : Complete Main
Default : Да
Forced : Нет
Текст
Идентификатор : 2
Формат : UTF-8
Идентификатор кодека : S_TEXT/UTF8
Идентификатор кодека/Информация : UTF-8 Plain Text
Заголовок : SUB
Язык : Russian
Default : Нет
Forced : Нет
Релиз от:
[Profile] [PM]
Display posts:    
Reply to topic

Current time is: 21-Jul 12:32

All times are UTC + 3



You cannot post new topics in this forum
You cannot reply to topics in this forum
You cannot edit your posts in this forum
You cannot delete your posts in this forum
You cannot vote in polls in this forum
You cannot attach files in this forum
You cannot download files in this forum