Хороший день (2018) WEB-DLRip от GeneralFilm

Reply to topic
 
Author Message

vsobbol ®

Gender: Male

Longevity: 1 year

Posts: 366

Location: Донецк

Post 04-Aug-2019 11:12

[Quote]

Хороший день
Год выпуска: 2018
Жанр: Мелодрама, комедия
Выпущено: Россия, Студия Лира
Режиссер: Сергей Швыдкой
В ролях: Андрей Соколов, Ольга Филимонова, Кирилл Запорожский, Дмитрий Миллер, Степан Бекетов, Тимур Бадалбейли, Алексей Юдников, Маргарита Аброськина, Дарья Токарева, Ирина Демидкина, Роман Рипко
О фильме: Эти истории произошли в одно не самое удачное зимнее утро в курортном городе. Талантливый музыкант-самоучка Егор проваливает важное прослушивание в джазовый коллектив. Писатель Петр пытается покончить жизнь самоубийством, для того чтобы повысить интерес к своей персоне и распродать тираж. К одинокой и строгой девушке Елене неожиданно в квартиру врывается бывший муж, который мечтает стать известным клоуном в цирке. От таксиста Тимура уходит жена и он вынужден «плясать под дудку» маленькой богатой пассажирки. Но может быть, не стоит отчаиваться?

Качество: WEB-DLRip
Видео: XviD build 73, 720x400 (16:9), 25.000 fps, 1957 Kbps (0.272 bit/pixel)
Аудио: 48.0 kHz, AC3, 2 ch, 192 kbps
Продолжительность: 01:30:39
Перевод / Озвучка: Не требуется [Русский]
Cубтитры: нет

Скриншоты

MediaInfo

General
Complete name : D:\Razdachi\Horoshij.Denj.2018.WEB-DLRip.GeneralFilm.avi
Format : AVI
Format/Info : Audio Video Interleave
File size : 1.37 GiB
Duration : 1 h 30 min
Overall bit rate : 2 159 kb/s
Writing application : VirtualDubMod 1.5.10.3 | www.virtualdub-fr.org || (build 2550/release)
Writing library : VirtualDubMod build 2550/release
Video
ID : 0
Format : MPEG-4 Visual
Format profile : Advanced Simple@L5
Format settings : BVOP1 / Custom Matrix
Format settings, BVOP : 1
Format settings, QPel : No
Format settings, GMC : No warppoints
Format settings, Matrix : Custom
Codec ID : XVID
Codec ID/Hint : XviD
Duration : 1 h 30 min
Bit rate : 1 957 kb/s
Width : 720 pixels
Height : 400 pixels
Display aspect ratio : 16:9
Frame rate : 25.000 FPS
Color space : YUV
Chroma subsampling : 4:2:0
Bit depth : 8 bits
Scan type : Progressive
Compression mode : Lossy
Bits/(Pixel*Frame) : 0.272
Stream size : 1.24 GiB (91%)
Writing library : XviD 73
Audio
ID : 1
Format : AC-3
Format/Info : Audio Coding 3
Commercial name : Dolby Digital
Codec ID : 2000
Duration : 1 h 30 min
Bit rate mode : Constant
Bit rate : 192 kb/s
Channel(s) : 2 channels
Channel layout : L R
Sampling rate : 48.0 kHz
Frame rate : 31.250 FPS (1536 SPF)
Bit depth : 16 bits
Compression mode : Lossy
Stream size : 125 MiB (9%)
Alignment : Split accross interleaves
Interleave, duration : 40 ms (1.00 video frame)
Interleave, preload duratio : 500 ms
Service kind : Complete Main
Релиз от:
[Profile] [PM]
Display posts:    
Reply to topic

Current time is: 11-Dec 14:53

All times are UTC + 3



You cannot post new topics in this forum
You cannot reply to topics in this forum
You cannot edit your posts in this forum
You cannot delete your posts in this forum
You cannot vote in polls in this forum
You cannot attach files in this forum
You cannot download files in this forum