Кино по понятиям (2019) SATRip

Reply to topic
 
Author Message

Monk ®

Gender: Male

Longevity: 1 year

Posts: 9645

Location: Казань

Post 13-Aug-2019 07:38

[Quote]

Кино по понятиям Год выпуска: 2019
Жанр: Комедия, криминал
Выпущено: Казахстан
Режиссер: Анвар Матжанов
В ролях: Асель Садвакасова, Фархат Кульбаев, Жакан Утаргалиев, Мейржан Туребаев, Олжас Жанабеков, Асан Мажит, Марат Амираев, Аскар Бисембин, Абунасыр Сериков
О фильме: Канат Кожанов, начинающий горе-сценарист и режиссёр, нарывается на криминальную банду, которая из-за пристальной слежки подполковника УБОП-а вынуждена снять фильм Каната и сыграть в нём главные роли. «Новое дело» преступные авторитеты рассматривают как несерьёзный кинопроект, где можно смешать кровь с весельем, любовь с насилием и деньги с дружбой. Но главное их задание — сбить с толку вездесущего подполковника, отыскать контрабандный бриллиант и после съемок «убрать» режиссёра и его полоумного друга-оператора...
Качество: SATRip
Видео: XviD, 1186 Кбит/с, 624x256, 25 кадр/с
Аудио: MP3, 1 ch, 128 Кбит/с
Продолжительность: 01:18:37
Перевод: Не требуется
Субтитры: Русские, казахские

Скриншоты


MediaInfo

General
Complete name : D:\Кино по понятиям (2019) SATRip by ExKinoRay & Shkiper.avi
Format : AVI
Format/Info : Audio Video Interleave
File size : 744 MiB
Duration : 1 h 18 min
Overall bit rate : 1 324 kb/s
Writing application : VirtualDubMod 1.5.10.3 | www.virtualdub-fr.org || (build 2550/release)
Writing library : VirtualDubMod build 2550/release
Video
ID : 0
Format : MPEG-4 Visual
Format profile : Advanced Simple@L5
Format settings : BVOP1 / Custom Matrix
Format settings, BVOP : 1
Format settings, QPel : No
Format settings, GMC : No warppoints
Format settings, Matrix : Custom
Codec ID : XVID
Codec ID/Hint : XviD
Duration : 1 h 18 min
Bit rate : 1 186 kb/s
Width : 624 pixels
Height : 256 pixels
Display aspect ratio : 2.40:1
Frame rate : 25.000 FPS
Color space : YUV
Chroma subsampling : 4:2:0
Bit depth : 8 bits
Scan type : Progressive
Compression mode : Lossy
Bits/(Pixel*Frame) : 0.297
Stream size : 667 MiB (90%)
Writing library : XviD 73
Audio
ID : 1
Format : MPEG Audio
Format version : Version 1
Format profile : Layer 3
Codec ID : 55
Codec ID/Hint : MP3
Duration : 1 h 18 min
Bit rate mode : Constant
Bit rate : 128 kb/s
Channel(s) : 1 channel
Sampling rate : 48.0 kHz
Frame rate : 41.667 FPS (1152 SPF)
Compression mode : Lossy
Stream size : 72.0 MiB (10%)
Alignment : Aligned on interleaves
Interleave, duration : 40 ms (1.00 video frame)
Interleave, preload duratio : 504 ms
Writing library : LAME3.99r
Encoding settings : -m m -V 4 -q 2 -lowpass 20.5 -b 128
[Profile] [PM]
Display posts:    
Reply to topic

Current time is: 11-Dec 14:45

All times are UTC + 3



You cannot post new topics in this forum
You cannot reply to topics in this forum
You cannot edit your posts in this forum
You cannot delete your posts in this forum
You cannot vote in polls in this forum
You cannot attach files in this forum
You cannot download files in this forum