Контакт [1-12 серии из 12] (2018) WEB-DLRip от GeneralFilm

Reply to topic
 
Author Message

vsobbol ®

Gender: Male

Longevity: 1 year

Posts: 366

Location: Донецк

Post 13-Aug-2019 19:49

[Quote]

Контакт
Год выпуска: 2018
Жанр: Детектив
Выпущено: Россия, Украина, Film.UA Group, Intra Communications
Режиссер: Михаил Баркан
В ролях: Павел Баршак, Матвей Зубалевич, Екатерина Маликова, Сергей Колос, Александр Семчев, Анна Сагайдачная, Владимир Гладкий, Михаил Жонин, Константин Косинский, Ольга Вивчарюк, Неонила Белецкая, Виталий Салий, Андрей Смирнов, Николай Боклан, Виктор Сарайкин, Нина Антонова, Галина Корнеева, Сергей Деревянко, Алексей Череватенко, Дато Роинишвили
О фильме: Спецслужбы проводят взрывные работы на участке, где зафиксированы магнитные аномалии. Совершенно случайно в зоне взрыва оказываются три человека: преступник Владимир Голенко, фотохудожник Олег Малинин и неудачливый писатель Венедикт Тартаковский. В результате взрыва между этими людьми возникает странная связь – фотограф Малинин может читать мысли преступника Голенко, и даже видеть окружающий мир его глазами, а писатель Тартаковский может полностью управлять действиями Голенко и при этом общаться с Малининым на расстоянии. Тартаковский, получив в свое полное распоряжение преступника Голенко, решает его руками отомстить всем, кто мешал ему в жизни. Город захлестывает череда кровавых преступлений. Малинин, понимая, что его «видения» реальны, обращается в полицию, но там его сначала подозревают в соучастии в преступлениях, а потом отправляют в психиатрическую клинику. Чтобы остановить преступников Малинину приходится бежать из клиники, скрываться от полиции, пытаться вести самостоятельное расследование. Но чем ближе он подбирается к убийце, тем изощрённее становятся преступления, планируемые Тартаковским…

Качество: WEB-DLRip
Видео: XviD build 73, 720x400 (16:9), 25.000 fps, ~ 1400 Kbps (~ 0.200 bit/pixel)
Аудио: 48.0 kHz, AC3, 2/0 ch, 192 kbps
Продолжительность: 12 х ~ 00:45:00
Перевод: Не требуется [Русский]
Cубтитры: нет

Скриншоты

MediaInfo

General
Complete name : D:\Razdachi\Kontakt.2018.WEB-DLRip.GeneralFilm\Kontakt.e01.avi
Format : AVI
Format/Info : Audio Video Interleave
File size : 557 MiB
Duration : 47 min 42 s
Overall bit rate : 1 633 kb/s
Writing application : VirtualDubMod 1.5.10.3 | www.virtualdub-fr.org || (build 2550/release)
Writing library : VirtualDubMod build 2550/release
Video
ID : 0
Format : MPEG-4 Visual
Format profile : Advanced Simple@L5
Format settings : BVOP1 / Custom Matrix
Format settings, BVOP : 1
Format settings, QPel : No
Format settings, GMC : No warppoints
Format settings, Matrix : Custom
Codec ID : XVID
Codec ID/Hint : XviD
Duration : 47 min 42 s
Bit rate : 1 432 kb/s
Width : 720 pixels
Height : 400 pixels
Display aspect ratio : 16:9
Frame rate : 25.000 FPS
Color space : YUV
Chroma subsampling : 4:2:0
Bit depth : 8 bits
Scan type : Progressive
Compression mode : Lossy
Bits/(Pixel*Frame) : 0.199
Stream size : 489 MiB (88%)
Writing library : XviD 73
Audio
ID : 1
Format : AC-3
Format/Info : Audio Coding 3
Commercial name : Dolby Digital
Codec ID : 2000
Duration : 47 min 42 s
Bit rate mode : Constant
Bit rate : 192 kb/s
Channel(s) : 2 channels
Channel layout : L R
Sampling rate : 48.0 kHz
Frame rate : 31.250 FPS (1536 SPF)
Bit depth : 16 bits
Compression mode : Lossy
Stream size : 65.5 MiB (12%)
Alignment : Split accross interleaves
Interleave, duration : 40 ms (1.00 video frame)
Interleave, preload duratio : 500 ms
Service kind : Complete Main
Релиз от:
[Profile] [PM]
Display posts:    
Reply to topic

Current time is: 11-Dec 14:19

All times are UTC + 3



You cannot post new topics in this forum
You cannot reply to topics in this forum
You cannot edit your posts in this forum
You cannot delete your posts in this forum
You cannot vote in polls in this forum
You cannot attach files in this forum
You cannot download files in this forum