Это не навсегда (2019) WEB-DLRip от Files-x | iTunes

Reply to topic
 
Author Message

bond74 ®

Gender: Male

Longevity: 10 months 1 day

Posts: 628

Post 30-Aug-2019 22:07

[Quote]

Это не навсегда Год выпуска: 2019
Жанр: Драма
Выпущено: Россия, Вега Фильм
Режиссер: Евгения Яцкина, Алена Рубинштейн
В ролях: Агриппина Стеклова, Ольга Лапшина, Яна Есипович, Александр Мохов, Марта Дроздова, Михаил Сазанов, Макар Пусторамов, Саша Агашков, Даниил Коновалов, Тимур Шошин
О фильме: В центре сюжета — истории четырёх воспитанников детского дома. Петя, Ваня, Настенька и Миша мечтают об одном: найти свою семью. Несмотря на то, что их судьбы тесно переплетены между собой, у каждого из них свой путь. Герои проживают вместе нелегкие будни, однако надеются и верят, что это не навсегда.

Качество: WEB-DLRip
Видео: XviD, 1723 Кбит/с, 720x304, 25 кадр/с
Аудио: AC3, 2 ch, 192 Кбит/с
Продолжительность: 01:32:56
Перевод: Не требуется
Субтитры: нет

Скриншоты

MediaInfo

General
Complete name : C:\Users\user\Downloads\Video\Это не навсегда.2019.WEB-DLRip. Files-x.avi
Format : AVI
Format/Info : Audio Video Interleave
File size : 1.37 GiB
Duration : 1h 32mn
Overall bit rate : 2 117 Kbps
Writing application : VirtualDubMod 1.5.10.3 | www.virtualdub-fr.org || (build 2550/release)
Writing library : VirtualDubMod build 2550/release
Video
ID : 0
Format : MPEG-4 Visual
Format profile : Advanced Simple@L5
Format settings, BVOP : 1
Format settings, QPel : No
Format settings, GMC : No warppoints
Format settings, Matrix : Custom
Codec ID : XVID
Codec ID/Hint : XviD
Duration : 1h 32mn
Bit rate : 1 723 Kbps
Width : 720 pixels
Height : 304 pixels
Display aspect ratio : 2.35:1
Frame rate : 25.000 fps
Color space : YUV
Chroma subsampling : 4:2:0
Bit depth : 8 bits
Scan type : Progressive
Compression mode : Lossy
Bits/(Pixel*Frame) : 0.315
Stream size : 1.12 GiB (81%)
Writing library : XviD 73
Audio
ID : 1
Format : AC-3
Format/Info : Audio Coding 3
Mode extension : CM (complete main)
Codec ID : 2000
Duration : 1h 32mn
Bit rate mode : Constant
Bit rate : 384 Kbps
Channel(s) : 6 channels
Channel positions : Front: L C R, Side: L R, LFE
Sampling rate : 48.0 KHz
Bit depth : 16 bits
Compression mode : Lossy
Stream size : 255 MiB (18%)
Alignment : Split accross interleaves
Interleave, duration : 40 ms (1.00 video frame)
Interleave, preload duration : 500 ms
Релиз от:
[Profile] [PM]
Display posts:    
Reply to topic

Current time is: 16-Sep 07:42

All times are UTC + 3



You cannot post new topics in this forum
You cannot reply to topics in this forum
You cannot edit your posts in this forum
You cannot delete your posts in this forum
You cannot vote in polls in this forum
You cannot attach files in this forum
You cannot download files in this forum