Крепостная [2 сезон: 1-16 серии из 24 (2019) WEBRip от Files-x

Reply to topic
 
Author Message

bond74 ®

Gender: Male

Longevity: 10 months 1 day

Posts: 628

Post 03-Sep-2019 10:07

[Quote]

Крепостная Год выпуска: 2019
Жанр: Мелодрама
Выпущено: Украина, StarLight Films, Film.ua
Режиссер: Феликс Герчиков, Максим Литвинов
В ролях: Катерина Ковальчук, Алексей Яровенко, Станислав Боклан, Ольга Сумская, Марк Дробот, Олеся Жураковская, Михаил Гаврилов (II), Ксения Мишина, Виктор Бабак, Дарья Легейда
О фильме: Юная сирота Катерина Вербицкая — очень красивая, умная и образованная девушка. Благодаря ее крестной матери Катю воспитали как барышню благородных кровей. Она знает иностранные языки, играет на фортепиано, рисует и прекрасно понимает, что все это никак не облегчит судьбу рожденной в неволе. Катерина принадлежит самым богатым помещикам в Нежине — Червинским. Девушка существует между двумя мирами — миром крепостных и дворян. И ни в одном из них для нее нет места. В борьбе за свою свободу и право быть счастливой ей придется пережить смерти самых близких людей, стать собственностью женщины, которая ее ненавидит и мечтает убить, выжить во время народного восстания, спастись от преследований маньяка в пугающем мире киевских борделей и снова, и снова бежать от того, кто хочет заполучить ее больше всего на свете. Что ждет Катерину в конце такого страшного и изнурительного пути к свободе?

Качество: WEBRip
Видео: XviD, ~ 1600 Кбит/с, 720x400, 25 кадр/с
Аудио: AC3, 2 ch, 192 Кбит/с
Продолжительность: 16 x ~ 00:46:00
Перевод: Не требуется
Субтитры: нет

Скриншоты

MediaInfo

General
Complete name : H:\fiiles x\Крепостная.S02.2019.WEB-DLRip.. Files-x\02. Крепостная.S02.2019.WEB-DLRip. Files-x .avi
Format : AVI
Format/Info : Audio Video Interleave
File size : 627 MiB
Duration : 48mn 39s
Overall bit rate : 1 802 Kbps
Writing application : VirtualDubMod 1.5.10.3 | www.virtualdub-fr.org || (build 2550/release)
Writing library : VirtualDubMod build 2550/release
Video
ID : 0
Format : MPEG-4 Visual
Format profile : Advanced Simple@L5
Format settings, BVOP : 1
Format settings, QPel : No
Format settings, GMC : No warppoints
Format settings, Matrix : Custom
Codec ID : XVID
Codec ID/Hint : XviD
Duration : 48mn 39s
Bit rate : 1 600 Kbps
Width : 720 pixels
Height : 400 pixels
Display aspect ratio : 16:9
Frame rate : 25.000 fps
Color space : YUV
Chroma subsampling : 4:2:0
Bit depth : 8 bits
Scan type : Progressive
Compression mode : Lossy
Bits/(Pixel*Frame) : 0.222
Stream size : 557 MiB (89%)
Writing library : XviD 73
Audio
ID : 1
Format : AC-3
Format/Info : Audio Coding 3
Mode extension : CM (complete main)
Codec ID : 2000
Duration : 48mn 39s
Bit rate mode : Constant
Bit rate : 192 Kbps
Channel(s) : 2 channels
Channel positions : Front: L R
Sampling rate : 48.0 KHz
Bit depth : 16 bits
Compression mode : Lossy
Stream size : 66.8 MiB (11%)
Alignment : Split accross interleaves
Interleave, duration : 40 ms (1.00 video frame)
Interleave, preload duration : 500 ms
Релиз от:
[Profile] [PM]
Display posts:    
Reply to topic

Current time is: 16-Sep 06:57

All times are UTC + 3



You cannot post new topics in this forum
You cannot reply to topics in this forum
You cannot edit your posts in this forum
You cannot delete your posts in this forum
You cannot vote in polls in this forum
You cannot attach files in this forum
You cannot download files in this forum