Тайна последней главы [1-4 серии из 4] (2019) WEB-DLRip от GeneralFilm

Reply to topic
 
Author Message

vsobbol ®

Gender: Male

Longevity: 10 months

Posts: 275

Location: Донецк

Post 11-Sep-2019 01:07

[Quote]

Тайна последней главы
Год выпуска: 2019
Жанр: Детектив, триллер
Выпущено: Россия, ООО «MAGIC FACTORY»
Режиссер: Артур Румынский
В ролях: Александра Никифорова, Константин Соловьёв, Константин Балакирев, Евгений Воловенко, Елена Морозова, Ирина Бразговка, Любовь Матюшина, Ксения Щербакова, Елена Полякова, Евгений Коряковский, Эрик Яралов, Владислав Павлов, Галина Звягинцева, Даниил Чибриков, Григорий Быстрицкий, Андрей Пынзару, Елена Михайлова (II)
О фильме: В одно обыкновенное утро жизнь переводчицы Ланы Берсеньевой раскололась на «до» и «после». Сначала Лана нашла мертвой свою собаку, а вскоре была убита еще и старенькая няня Софико, и муж оказался под подозрением. Чтобы перестать переживать, Лана начинает переводить роман писателя Ханса Лундстрема, в котором, к своему ужасу, обнаруживает явные намеки на кошмары, происходящие вокруг нее. Никто не принимает впечатления и страхи Ланы всерьез, но предсказания сбываются, и один за другим погибают близкие Лане люди. К тому же текст романа заставляет Лану пересмотреть жизнь своей семьи и открыть в ней страшные тайны. Лана понимает: убийца находится рядом, он контролирует её мысли и поступки, и у неё нет шансов выйти живой из игры, которую он затеял.

Качество: WEB-DLRip
Видео: XviD build 73, 720x400 (16:9), 25.000 fps, ~ 1450 Kbps (~ 0.202 bit/pixel)
Аудио: 48.0 kHz, AC3, 2/0 ch, 192 kbps
Продолжительность: 4 х ~ 00:47:00
Перевод: Не требуется [Русский]
Cубтитры: нет

Скриншоты

MediaInfo

General
Complete name : D:\Razdachi\Tajna.Poslednej.Glavy.2019.WEB-DLRip.GeneralFilm\Tajna.Poslednej.Glavy.e01.avi
Format : AVI
Format/Info : Audio Video Interleave
File size : 557 MiB
Duration : 47 min 4 s
Overall bit rate : 1 655 kb/s
Writing application : VirtualDubMod 1.5.10.3 | www.virtualdub-fr.org || (build 2550/release)
Writing library : VirtualDubMod build 2550/release
Video
ID : 0
Format : MPEG-4 Visual
Format profile : Advanced Simple@L5
Format settings : BVOP1 / Custom Matrix
Format settings, BVOP : 1
Format settings, QPel : No
Format settings, GMC : No warppoints
Format settings, Matrix : Custom
Codec ID : XVID
Codec ID/Hint : XviD
Duration : 47 min 4 s
Bit rate : 1 453 kb/s
Width : 720 pixels
Height : 400 pixels
Display aspect ratio : 16:9
Frame rate : 25.000 FPS
Color space : YUV
Chroma subsampling : 4:2:0
Bit depth : 8 bits
Scan type : Progressive
Compression mode : Lossy
Bits/(Pixel*Frame) : 0.202
Stream size : 489 MiB (88%)
Writing library : XviD 73
Audio
ID : 1
Format : AC-3
Format/Info : Audio Coding 3
Commercial name : Dolby Digital
Codec ID : 2000
Duration : 47 min 4 s
Bit rate mode : Constant
Bit rate : 192 kb/s
Channel(s) : 2 channels
Channel layout : L R
Sampling rate : 48.0 kHz
Frame rate : 31.250 FPS (1536 SPF)
Bit depth : 16 bits
Compression mode : Lossy
Stream size : 64.6 MiB (12%)
Alignment : Split accross interleaves
Interleave, duration : 40 ms (1.00 video frame)
Interleave, preload duratio : 500 ms
Service kind : Complete Main
Релиз от:
[Profile] [PM]
Display posts:    
Reply to topic

Current time is: 16-Sep 07:09

All times are UTC + 3



You cannot post new topics in this forum
You cannot reply to topics in this forum
You cannot edit your posts in this forum
You cannot delete your posts in this forum
You cannot vote in polls in this forum
You cannot attach files in this forum
You cannot download files in this forum