Руслан и Людмила: Перезагрузка / Викрадена принцеса: Руслан i Людмила (2018) BDRip | iTunes

Reply to topic
 
Author Message

vsobbol ®

Gender: Male

Longevity: 10 months 29 days

Posts: 302

Location: Донецк

Post 24-Sep-2019 00:03

[Quote]

Руслан и Людмила: Перезагрузка / Викрадена принцеса: Руслан i Людмила
Год выпуска: 2018
Жанр: Мультфильм, фэнтези, комедия
Выпущено: Украина, Animagrad Animation Studio, Film.UA
Режиссер: Олег Маламуж
В ролях: Надежда Дорофеева, Алексей Завгородний, Евгений Малуха, Сергей Притула, Юрий Горбунов, Олег Михайлюта, Николай Боклан, Маша Ефросинина, Егор Крутоголов, Евгений Гашенко
О фильме: Бродячий артист Руслан влюбляется в прекрасную Милу, даже не подозревая, что она принцесса. Когда злой волшебник Черномор похищает его возлюбленную, рассчитывая превратить силу её любви в собственное колдовское могущество, Руслан отправляется в погоню за украденной принцессой. Ему придётся преодолеть все преграды и опасности на своём пути, чтобы доказать, что настоящая любовь сильнее магии.

Качество: BDRip
Видео: XviD build 73, 720x304 (2.37:1), 24.000 fps, 1007 Kbps (0.192 bit/pixel)
Аудио: 48.0 kHz, MP3, 2/0 ch, 128 kbps
Продолжительность: 01:31:09
Перевод: Дублированный | iTunes
Cубтитры: нет

Скриншоты



MediaInfo

General
Complete name : D:\Razdachi\Ruslan.I.Ljudmila.Perezagruzka.2018.BDRip.GeneralFilm.avi
Format : AVI
Format/Info : Audio Video Interleave
File size : 746 MiB
Duration : 1 h 31 min
Overall bit rate : 1 144 kb/s
Writing application : VirtualDubMod 1.5.10.3 | www.virtualdub-fr.org || (build 2550/release)
Writing library : VirtualDubMod build 2550/release
Video
ID : 0
Format : MPEG-4 Visual
Format profile : Advanced Simple@L5
Format settings : BVOP1 / Custom Matrix
Format settings, BVOP : 1
Format settings, QPel : No
Format settings, GMC : No warppoints
Format settings, Matrix : Custom
Codec ID : XVID
Codec ID/Hint : XviD
Duration : 1 h 31 min
Bit rate : 1 007 kb/s
Width : 720 pixels
Height : 304 pixels
Display aspect ratio : 2.35:1
Frame rate : 24.000 FPS
Color space : YUV
Chroma subsampling : 4:2:0
Bit depth : 8 bits
Scan type : Progressive
Compression mode : Lossy
Bits/(Pixel*Frame) : 0.192
Stream size : 656 MiB (88%)
Writing library : XviD 73
Audio
ID : 1
Format : MPEG Audio
Format version : Version 1
Format profile : Layer 3
Codec ID : 55
Codec ID/Hint : MP3
Duration : 1 h 30 min
Bit rate mode : Constant
Bit rate : 128 kb/s
Channel(s) : 2 channels
Sampling rate : 48.0 kHz
Frame rate : 41.667 FPS (1152 SPF)
Compression mode : Lossy
Stream size : 83.2 MiB (11%)
Alignment : Aligned on interleaves
Interleave, duration : 42 ms (1.00 video frame)
Interleave, preload duratio : 504 ms
Writing library : LAME3.99r
Encoding settings : -m s -V 4 -q 2 -lowpass 17 -b 128
Релиз от:
[Profile] [PM]
Display posts:    
Reply to topic

Current time is: 15-Oct 12:47

All times are UTC + 3



You cannot post new topics in this forum
You cannot reply to topics in this forum
You cannot edit your posts in this forum
You cannot delete your posts in this forum
You cannot vote in polls in this forum
You cannot attach files in this forum
You cannot download files in this forum