Discovery. Золотая лихорадка. Берингово море / Bering Sea Gold [8 сезон: 1-3 серии из 10] (2019) HDTVRip 720р от Starik60

Reply to topic
 
Author Message

Starik60 ®

Gender: Male

Longevity: 11 months 2 days

Posts: 171

Location: Москва, Россия

Post 27-Sep-2019 13:30

[Quote]

Золотая лихорадка. Берингово море / Bering Sea Gold
Год выпуска: 2019
Жанр: Документальный, природа, география, путешествия, приключения, исследование
Выпущено: США, Discovery Channel
В ролях: Эмили Ридель, Шон Помренк, Стив Помренк
О фильме: В местечке Ном на Аляске начинается летний сезон золотодобычи, и он обещает стать самым урожайным в истории. Старатели прибегают к новым тактикам, ищут новые месторождения и применяют новое оборудование, чтобы извлечь из Берингова моря еще больше золота. Капитан Шон Помренке стремится сохранить лидерские позиции: ему необходимо показать впечатляющий результат, чтобы найти деньги на строительство невероятной драги за несколько миллионов долларов. Однако на пятки ему наступают Кенн Керр и его деловой партнер Дэйв Янг, чья 600-тонная баржа работает невероятно эффективно. Тем временем Эмили Ридел вступает в отчаянную борьбу со стихией и рискует безвозвратно потерять свою драгу. Семейство Келли надеется повторить грандиозный успех прошлого сезона, а небывало решительный Крис решает повести за собой команду. Лишь время покажет, кто из старателей окажется удачливее всех и заполучит самую большую добычу.

Качество: HDTVRip 720p
Видео: MPEG-4 AVC, ~ 4000 Кбит/с, 1280x720
Аудио: MP2, 2 ch, 384 Кбит/с
Продолжительность: 3 х ~ 00:44:00
Перевод: Профессиональный (одноголосый, закадровый)

Скриншоты



MediaInfo

General
Unique ID : 201164630108598048159918037963035225603 (0x9756E6034B715E1AA82816920025AE03)
Complete name : G:\Раздачи 2\Берингово море S08 HDTVRip 720p by Starik60\01 Берингово море by Starik60.mkv
Format : Matroska
Format version : Version 4 / Version 2
File size : 1.34 GiB
Duration : 43 min 42 s
Overall bit rate mode : Constant
Overall bit rate : 4 384 kb/s
Encoded date : UTC 2019-09-26 21:05:58
Writing application : mkvmerge v7.8.0 ('River Man') 64bit built on Mar 27 2015 16:31:37
Writing library : libebml v1.3.1 + libmatroska v1.4.2 / Lavf54.63.104
Cover : Yes
Attachments : cover1.jpg
Video
ID : 1
Format : AVC
Format/Info : Advanced Video Codec
Format profile : High@L4.1
Format settings : CABAC / 3 Ref Frames
Format settings, CABAC : Yes
Format settings, ReFrames : 3 frames
Codec ID : V_MPEG4/ISO/AVC
Duration : 43 min 42 s
Bit rate mode : Constant
Bit rate : 4 000 kb/s
Width : 1 280 pixels
Height : 720 pixels
Display aspect ratio : 16:9
Frame rate mode : Constant
Frame rate : 50.000 FPS
Standard : PAL
Color space : YUV
Chroma subsampling : 4:2:0
Bit depth : 8 bits
Scan type : Progressive
Bits/(Pixel*Frame) : 0.087
Stream size : 1.22 GiB (91%)
Default : No
Forced : No
Color range : Limited
Color primaries : BT.709
Transfer characteristics : BT.709
Matrix coefficients : BT.709
Audio
ID : 2
Format : MPEG Audio
Format version : Version 1
Format profile : Layer 2
Codec ID : A_MPEG/L2
Codec ID/Hint : MP2
Duration : 43 min 42 s
Bit rate mode : Constant
Bit rate : 384 kb/s
Channel(s) : 2 channels
Sampling rate : 48.0 kHz
Frame rate : 41.667 FPS (1152 SPF)
Compression mode : Lossy
Delay relative to video : 4 ms
Stream size : 120 MiB (9%)
Language : English
Default : Yes
Forced : No

Название серий

01. Крупная игра.
02. Зверь на свободе.
03. Битва титанов.
04.
05.
06..
Релиз от:
[Profile] [PM]
Display posts:    
Reply to topic

Current time is: 15-Oct 12:13

All times are UTC + 3



You cannot post new topics in this forum
You cannot reply to topics in this forum
You cannot edit your posts in this forum
You cannot delete your posts in this forum
You cannot vote in polls in this forum
You cannot attach files in this forum
You cannot download files in this forum