Трудности выживания (2019) WEB-DLRip-AVC от Files-x | iTunes

Reply to topic
 
Author Message

Серый1779 ®

Gender: Male

Longevity: 11 months 2 days

Posts: 617

Location: Украина

Post 04-Oct-2019 21:01

[Quote]

Трудности выживания
Год выпуска: 2019
Жанр: Комедия, мелодрама
Выпущено: Россия, 2Д Целлулоид
Режиссер: Евгений Торрес
В ролях: Василий Бриченко, Елизавета Кононова, Ян Цапник, Артем Маркарьян, Анна Ардова, Александр Самойленко, Николай Фоменко, Надежда Сысоева, Александр Носков, Максим Важов
О фильме: Начинающая журналистка Нина в погоне за сенсацией отправляется на необитаемый остров, где, по слухам, живет миллионер-затворник. Баркас со съёмочной группой попадает в жуткий шторм, и Нина приходит в сознание уже на пустынном берегу. К счастью, это именно тот остров, который ей был нужен, а значит, она оказалась в надежных руках молодого и симпатичного героя своего репортажа. Но только Нина еще не подозревает, что на самом деле это ее коллега, местный журналист, которому просто нужна была горячая тема, и он её выдумал. А ещё он ничего не смыслит в выживании…
Качество: WEB-DLRip-AVC
Видео: MPEG-4 AVC, ~ 1936 Кбит/с, 1024x432, 24 кадр/с
Аудио: AC3, 6 ch, 384 Кбит/с
Продолжительность: 01:29:50
Перевод: Не требуется [Русский]
Cубтитры: нет

Скриншоты



MediaInfo

General
Unique ID : 221701542649509886528132411504688941034 (0xA6CA29F9F964C730985F88F05E28C7EA)
Complete name : F:\Trudnosti vyzhivaniya.(2019).WEB-DLRip.(AVC).by.Серый1779.Files-x.mkv
Format : Matroska
Format version : Version 2
File size : 1.46 GiB
Duration : 1 h 29 min
Overall bit rate : 2 320 kb/s
Encoded date : UTC 2019-10-04 15:07:15
Writing application : mkvmerge v7.8.0 ('River Man') 32bit built on Apr 3 2015 12:11:22
Writing library : libebml v1.3.1 + libmatroska v1.4.2
Video
ID : 1
Format : AVC
Format/Info : Advanced Video Codec
Format profile : High@L4.1
Format settings : CABAC / 10 Ref Frames
Format settings, CABAC : Yes
Format settings, RefFrames : 10 frames
Codec ID : V_MPEG4/ISO/AVC
Duration : 1 h 29 min
Bit rate : 1 936 kb/s
Width : 1 024 pixels
Height : 432 pixels
Display aspect ratio : 2.40:1
Frame rate mode : Constant
Frame rate : 24.000 FPS
Color space : YUV
Chroma subsampling : 4:2:0
Bit depth : 8 bits
Scan type : Progressive
Bits/(Pixel*Frame) : 0.182
Stream size : 1.19 GiB (81%)
Writing library : x264 core 146 r2538 121396c
Encoding settings : cabac=1 / ref=10 / deblock=1:-2:-1 / analyse=0x3:0x133 / me=umh / subme=11 / psy=1 / psy_rd=1.00:0.08 / mixed_ref=1 / me_range=32 / chroma_me=1 / trellis=2 / 8x8dct=1 / cqm=0 / deadzone=21,11 / fast_pskip=0 / chroma_qp_offset=-3 / threads=18 / lookahead_threads=3 / sliced_threads=0 / nr=0 / decimate=1 / interlaced=0 / bluray_compat=0 / constrained_intra=0 / bframes=11 / b_pyramid=2 / b_adapt=2 / b_bias=0 / direct=1 / weightb=1 / open_gop=0 / weightp=2 / keyint=250 / keyint_min=23 / scenecut=40 / intra_refresh=0 / rc=2pass / mbtree=0 / bitrate=1936 / ratetol=1.0 / qcomp=0.60 / qpmin=0 / qpmax=69 / qpstep=4 / cplxblur=20.0 / qblur=0.5 / ip_ratio=1.40 / pb_ratio=1.30 / aq=2:1.00
Default : Yes
Forced : No
Color range : Limited
Color primaries : BT.709
Transfer characteristics : BT.709
Matrix coefficients : BT.709
Audio
ID : 2
Format : AC-3
Format/Info : Audio Coding 3
Format settings, Endianness : Big
Codec ID : A_AC3
Duration : 1 h 29 min
Bit rate mode : Constant
Bit rate : 384 kb/s
Channel(s) : 6 channels
Channel positions : Front: L C R, Side: L R, LFE
Sampling rate : 48.0 kHz
Frame rate : 31.250 FPS (1536 SPF)
Bit depth : 16 bits
Compression mode : Lossy
Stream size : 247 MiB (17%)
Service kind : Complete Main
Default : Yes
Forced : No
Релиз от:
[Profile] [PM]
Display posts:    
Reply to topic

Current time is: 15-Oct 11:38

All times are UTC + 3



You cannot post new topics in this forum
You cannot reply to topics in this forum
You cannot edit your posts in this forum
You cannot delete your posts in this forum
You cannot vote in polls in this forum
You cannot attach files in this forum
You cannot download files in this forum