Американский отдел. Капкан на ЦРУ (2017) WEBRip от Files-x

Reply to topic
 
Author Message

bond74 ®

Gender: Male

Longevity: 11 months

Posts: 659

Post 02-Dec-2018 15:54

[Quote]

Американский отдел. Капкан на ЦРУ Год выпуска: 2017
Жанр: Документальный, познавательный, история
Выпущено: Россия, Студия «ПродюсерЦентр», ВГТРК
Режиссер: Александр Сидоров
Ведущий: Александр Сладков
О фильме: К началу 80-х годов глобальное противостояние двух супердержав – СССР и США – во всех сферах привело к небывалому всплеску шпионской активности на нашей территории. Не зря последующие десять лет получили название "десятилетия шпионажа". В этих шпионских войнах были свои герои и свои предатели. Было также два секретных штаба и две профессиональные команды, которые сошлись в тайном состязании, находясь буквально в трех километрах друг от друга: одни на Лубянке, другие – под крышей Американского посольства. Резидентура ЦРУ в Москве – против американского отдела Второго главного управления КГБ СССР. Элита мира шпионажа. В документальном фильме участники нескольких уникальных операций с обеих сторон сошлись вновь. Ветераны советской контрразведки и сотрудники ЦРУ впервые делятся подробностями, неожиданными не только для зрителей, но, зачастую, и для бывшего противника.
Качество: WEBRip
Видео: XviD, 1589 Кбит/с, 720x400, 25 кадр/с
Аудио: AC3, 2 ch, 192 Кбит/с
Продолжительность: 01:27:15
Перевод: Не требуется
Субтитры: нет

Скриншоты

MediaInfo

General
Complete name : H:\Американский отдел.Капкан на ЦРУ.2017.WEBRip.Files-х.avi
Format : AVI
Format/Info : Audio Video Interleave
File size : 1.10 GiB
Duration : 1h 27mn
Overall bit rate : 1 797 Kbps
Writing application : VirtualDubMod 1.5.10.3 | www.virtualdub-fr.org || (build 2550/release)
Writing library : VirtualDubMod build 2550/release
Video
ID : 0
Format : MPEG-4 Visual
Format profile : Advanced Simple@L5
Format settings, BVOP : 1
Format settings, QPel : No
Format settings, GMC : No warppoints
Format settings, Matrix : Custom
Codec ID : XVID
Codec ID/Hint : XviD
Duration : 1h 27mn
Bit rate : 1 589 Kbps
Width : 720 pixels
Height : 400 pixels
Display aspect ratio : 16:9
Frame rate : 25.000 fps
Color space : YUV
Chroma subsampling : 4:2:0
Bit depth : 8 bits
Scan type : Progressive
Compression mode : Lossy
Bits/(Pixel*Frame) : 0.221
Stream size : 495 MiB (44%)
Writing library : XviD 73
Audio
ID : 1
Format : AC-3
Format/Info : Audio Coding 3
Mode extension : CM (complete main)
Codec ID : 2000
Duration : 1h 27mn
Bit rate mode : Constant
Bit rate : 192 Kbps
Channel(s) : 2 channels
Channel positions : Front: L R
Sampling rate : 48.0 KHz
Bit depth : 16 bits
Compression mode : Lossy
Delay relative to video : 20ms
Stream size : 59.8 MiB (5%)
Alignment : Split accross interleaves
Interleave, duration : 40 ms (1.00 video frame)
Interleave, preload duration : 500 ms
Релиз от:
[Profile] [PM]
Display posts:    
Reply to topic

Current time is: 15-Oct 11:28

All times are UTC + 3



You cannot post new topics in this forum
You cannot reply to topics in this forum
You cannot edit your posts in this forum
You cannot delete your posts in this forum
You cannot vote in polls in this forum
You cannot attach files in this forum
You cannot download files in this forum