Прятки [1-8 серии из 8] (2019) WEB-DLRip от GeneralFilm

Reply to topic
 
Author Message

vsobbol ®

Gender: Male

Longevity: 2 years 10 months

Posts: 761

Location: Донецк

Post 30-Oct-2019 20:00

[Quote]

Прятки
Год выпуска: 2019
Жанр: Детектив, криминал, триллер
Выпущено: Украина, «FILM.UA», «ZDF Enterprises»
Режиссер: Ирина Громозда
В ролях: Юлия Абдель-Фаттах, Пётр Рыков, Александр Кобзарь, Вячеслав Довженко, Михаил Тройник, Яков Кучеревский, Олег Москаленко, Валерий Легин, Владимир Заец, Евгения Гладий, Александр Соколов (VI), Вячеслав Бабенков (II), Марина Куклина
О фильме: О двух детективах, Варте Наумовой и Максиме Шумове, которые расследуют похищение маленькой девочки из запертой квартиры. Во время домашней игры таинственным образом исчезает девочка — из квартиры не выходила, дверь не открывала. Поняв, что дочка действительно исчезла, отец обращается в полицию. Позже в Сети появляется видео, где пропавшая девочка держит табличку с загадочной комбинацией цифр. Очевидно, что ребенок похищен, и это – лишь первая жертва в чьей-то сложной и жестокой игре.
Качество: WEB-DLRip
Видео: XviD build 73, 704x352 (2.000), 25.000 fps, ~ 1450 Kbps (~ 0.230 bit/pixel)
Аудио: 48.0 kHz, AC3, 2/0 ch, 192 kbps
Продолжительность: 8 х ~ 00:49:00
Перевод: Не требуется [Русский]
Cубтитры: нет

Скриншоты

MediaInfo

General
Complete name : D:\Razdachi\Prjatki.2019.WEB-DLRip.GeneralFilm\e01.Prjatki.avi
Format : AVI
Format/Info : Audio Video Interleave
File size : 556 MiB
Duration : 46 min 25 s
Overall bit rate : 1 675 kb/s
Writing application : VirtualDubMod 1.5.10.3 | www.virtualdub-fr.org || (build 2550/release)
Writing library : VirtualDubMod build 2550/release
Video
ID : 0
Format : MPEG-4 Visual
Format profile : Advanced Simple@L5
Format settings : BVOP1 / Custom Matrix
Format settings, BVOP : 1
Format settings, QPel : No
Format settings, GMC : No warppoints
Format settings, Matrix : Custom
Codec ID : XVID
Codec ID/Hint : XviD
Duration : 46 min 25 s
Bit rate : 1 473 kb/s
Width : 704 pixels
Height : 352 pixels
Display aspect ratio : 2.000
Frame rate : 25.000 FPS
Color space : YUV
Chroma subsampling : 4:2:0
Bit depth : 8 bits
Scan type : Progressive
Compression mode : Lossy
Bits/(Pixel*Frame) : 0.238
Stream size : 489 MiB (88%)
Writing library : XviD 73
Audio
ID : 1
Format : AC-3
Format/Info : Audio Coding 3
Commercial name : Dolby Digital
Codec ID : 2000
Duration : 46 min 25 s
Bit rate mode : Constant
Bit rate : 192 kb/s
Channel(s) : 2 channels
Channel layout : L R
Sampling rate : 48.0 kHz
Frame rate : 31.250 FPS (1536 SPF)
Compression mode : Lossy
Stream size : 63.8 MiB (11%)
Alignment : Split across interleaves
Interleave, duration : 40 ms (1.00 video frame)
Interleave, preload duratio : 500 ms
Service kind : Complete Main
Релиз от:
[Profile] [PM]

KRIEVS2011

Gender: Male

Longevity: 2 years 8 months

Posts: 196

Location: « Латвия - Latvija » « Рига - Riga »

Post 20-Jul-2021 09:12 (after 1 year 8 months)

[Quote]

Спасибо !!!
[Profile] [PM]
Display posts:    
Reply to topic

Current time is: 27-Sep 07:19

All times are UTC + 3



You cannot post new topics in this forum
You cannot reply to topics in this forum
You cannot edit your posts in this forum
You cannot delete your posts in this forum
You cannot vote in polls in this forum
You cannot attach files in this forum
You cannot download files in this forum