ЯнаСупер [1-4 выпуски из ??] (2019) WEB-DLRip от Files-x

Reply to topic
 
Author Message

papa1951deda ®

Gender: Male

Longevity: 1 year

Posts: 407

Location: Казахстан

Post 17-Nov-2019 19:15

[Quote]

ЯнаСупер Год выпуска: 2019
Жанр: Реалити-шоу
Выпущено: Россия, Телеканал супер
В ролях: Яна Рудковская, Евгений Плющенко, Ксения Собчак
О фильме: Проект «ЯнаСупер» станет пропуском в ту часть жизни богатых и знаменитых, которая, как правило, скрыта от посторонних глаз. Одна из самых влиятельных бизнес-леди российского шоу-бизнеса Яна Рудковская решилась пустить камеры в свой дом, семью, личную и творческую жизнь, чтобы рассказать о себе всю правду.
Качество: WEB-DLRip
Видео: XviD, ~ 1700 Кбит/с, 720x400, 25 кадр/с
Аудио: AC3, 2 ch, 192 Кбит/с
Продолжительность: 4 x ~ 00:49:00
Перевод: Не требуется [Русский]
Cубтитры: нет

Скриншоты


MediaInfo

General
Complete name: H:\шоу\ЯнаСупер .(Season 01) WEB-DLRip. Files-x\02. ЯнаСупер.2019.WEB-DLRip. Files-x.avi
Format: AVI
Format/Info: Audio Video Interleave
File size: 629 MiB
Duration: 46mn 14s
Overall bit rate: 1 901 Kbps
Writing application: VirtualDubMod 1.5.10.3 | www.virtualdub-fr.org || (build 2550/release)
Writing library: VirtualDubMod build 2550/release
Video
ID: 0
Format: MPEG-4 Visual
Format profile: Advanced Simple@L5
Format settings, BVOP: 2
Format settings, QPel: No
Format settings, GMC: No warppoints
Format settings, Matrix: Custom
Codec ID: XVID
Codec ID/Hint: XviD
Duration: 46mn 14s
Bit rate: 1 699 Kbps
Width: 720 pixels
Height: 400 pixels
Display aspect ratio: 16:9
Frame rate: 25.000 fps
Color space: YUV
Chroma subsampling: 4:2:0
Bit depth: 8 bits
Scan type: Progressive
Compression mode: Lossy
Bits/(Pixel*Frame): 0.236
Stream size: 562 MiB (89%)
Writing library: XviD 73
Audio
ID: 1
Format: AC-3
Format/Info: Audio Coding 3
Mode extension: CM (complete main)
Codec ID: 2000
Duration: 46mn 14s
Bit rate mode: Constant
Bit rate: 192 Kbps
Channel(s): 2 channels
Channel positions: Front: L R
Sampling rate: 48.0 KHz
Bit depth: 16 bits
Compression mode: Lossy
Stream size: 63.5 MiB (10%)
Alignment: Split accross interleaves
Interleave, duration: 40 ms (1.00 video frame)
Interleave, preload duration: 500 ms

Внимание! Раздача ведётся путём добавления новых серий

Раздача ведётся путём добавления новых серий, при каждом добавлении создаётся новый торрент. Чтобы начать докачку новой серии, пользователям необходимо сделать следующее:
- Остановить скачивание.
- Удалить старый торрент у себя из клиента (старые серии удалять не надо).
- Скачать новый торрент и запустить его у себя в клиенте вместо старого, при этом указать клиенту путь в старую папку куда и должно происходить скачивание новых серий.
Ваш клиент при этом должен произвести хеширование (проверку) старой папки (если не производит сам - помогите ему сделать это), и будет докачивать только те серии которых у вас ещё нет. Старые серии при этом не удаляются, а продолжают раздаваться!
Релиз от:


Last edited by papa1951deda on 2019-12-01 17:51; edited 1 time in total
[Profile] [PM]

papa1951deda ®

Gender: Male

Longevity: 1 year

Posts: 407

Location: Казахстан

Post 01-Dec-2019 16:03 (after 13 days)

[Quote]

Исправление ошибки
[Profile] [PM]
Display posts:    
Reply to topic

Current time is: 07-Dec 06:39

All times are UTC + 3



You cannot post new topics in this forum
You cannot reply to topics in this forum
You cannot edit your posts in this forum
You cannot delete your posts in this forum
You cannot vote in polls in this forum
You cannot attach files in this forum
You cannot download files in this forum