Расследование / Talaash (2012) HDTV 1080p от Generalfilm

Reply to topic
 
Author Message

ValkiriaGF ®

Gender: Female

Longevity: 1 year

Posts: 26

Location: Северная Пальмира

Post 18-Nov-2019 17:59

[Quote]

Расследование/ TalaashThe Answer Lies Within Год выпуска: 2012
Жанр: триллер, драма, криминал
Выпущено: Индия
Режиссер: Рима Кагти
В ролях: Аамир Кхан (Surjan Singh Shekhawat), Карина Капур (Rosie), Раджкумар Рао (Devrath Kulkarni (в титрах: Raj Kumar)), Навазуддин Сиддикуи (Tehmur), Рани Мукхерджи (Roshni Shekhawat), Раджшри Дешпанде (Priya), Шиба Чадха (Nirmala), Адити Васудев (Mallika), Виван Бхатена (Armaan Kapoor), Шерназ Патель (Frenny Mistry), Гулфам Кхан (Madam), Субрат Дутта (Shashi Naik)
О фильме: Инспектору Шекхвату ранним утром сообщают о несчастном случае и смерти кинозвезды Армана Капура, автомобиль которого ломает заграждения в районе Красных фонарей и падает в море. То, что сначала выглядит как простое расследование автомобильной аварии предстает рядом таинственных загадок. Что в такое время делал актёр в этом районе, расположенном не по дороге от его офиса в киногородке и не по дороге к его дому? Почему перед смертью Арман получил у своего бухгалтера наличными 2 млн. рупий? Почему на безлюдной улице трезвый актёр не удержал машину? У Шекхавата в личной жизни своя трагедия - погибший десятилетний сын и сломанная семейная жизнь. Распутать преступление Шекхавату во многом помогает путана Рози.

Качество: HDTV 1080p
Видео: MPEG-4 AVC, 1920x1080 (16:9), 7050 kbps, 25 fps, 0,136 bpp
Аудио: AC3, 2.0, 48 kHz, 192 kbps CBR
Продолжительность: 02:19:42
Перевод / Озвучка: Любительский [одноголосый]
Субтитры: нет

Скриншоты

MediaInfo

General
Unique ID : 194159500865293591624975616670096464300 (0x9211C279C1F7A8F59CD83486662C99AC)
Complete name : D:\торрент\готовые\Индия\Talaash.2012.HDTV 1080p.by.Valkiria-G.F.R.G.Generalfilm.mkv
Format : Matroska
Format version : Version 4 / Version 2
File size : 6.99 GiB
Duration : 2 h 19 min
Overall bit rate mode : Constant
Overall bit rate : 7 158 kb/s
Movie name : Talaash.2012.HDTV 1080p.by.Valkiria-G.F.R.G.Generalfilm.mkv
Encoded date : UTC 2019-03-19 15:15:40
Writing application : mkvmerge v6.8.0 ('Theme for Great Cities') 64bit built on Mar 2 2014 21:34:26
Writing library : libebml v1.3.0 + libmatroska v1.4.1
Video
ID : 1
Format : AVC
Format/Info : Advanced Video Codec
Format profile : High@L4.1
Format settings, CABAC : Yes
Format settings, ReFrames : 3 frames
Format settings, GOP : M=3, N=33
Codec ID : V_MPEG4/ISO/AVC
Duration : 2 h 19 min
Bit rate mode : Constant
Bit rate : 7 051 kb/s
Width : 1 920 pixels
Height : 1 080 pixels
Display aspect ratio : 16:9
Frame rate mode : Constant
Frame rate : 25.000 FPS
Standard : PAL
Color space : YUV
Chroma subsampling : 4:2:0
Bit depth : 8 bits
Scan type : Progressive
Bits/(Pixel*Frame) : 0.136
Stream size : 6.66 GiB (95%)
Default : Yes
Forced : No
Color range : Limited
Color primaries : BT.709
Transfer characteristics : BT.709
Matrix coefficients : BT.709
Audio
ID : 2
Format : AC-3
Format/Info : Audio Coding 3
Mode extension : CM (complete main)
Format settings, Endianness : Big
Codec ID : A_AC3
Duration : 2 h 19 min
Bit rate mode : Constant
Bit rate : 192 kb/s
Channel(s) : 2 channels
Channel positions : Front: L R
Sampling rate : 48.0 kHz
Frame rate : 31.250 FPS (1536 spf)
Compression mode : Lossy
Stream size : 192 MiB (3%)
Default : Yes
Forced : No

Знаете ли Вы, что...

  • Идея фильма пришла в голову сценаристке Зое Ахтар после того, как она с друзьями однажды стала свидетельницей необъяснимого феномена на пустынном ночном шоссе.
  • От предложения сыграть главного героя отказались Саиф Али Кхан, Салман Кхан и Шах Рукх Кхан. В конце концов, роль досталась Аамиру Кхану.
  • Действие фильма разворачивается в Мумбаи, и съёмки по большей части проходили там же. Однако, некоторые ключевые сцены сняли в Пудучерри, за 1000 км от Мумбаи, а одну подводную сцену сняли в Pinewood Studios недалеко от Лондона.
Релиз от:
[Profile] [PM]
Display posts:    
Reply to topic

Current time is: 07-Dec 07:55

All times are UTC + 3



You cannot post new topics in this forum
You cannot reply to topics in this forum
You cannot edit your posts in this forum
You cannot delete your posts in this forum
You cannot vote in polls in this forum
You cannot attach files in this forum
You cannot download files in this forum