КВН-2019. Встреча выпускников [23.11] (2019) HDTVRip от GeneralFilm

Reply to topic
 
Author Message

olegka7373 ®

Gender: Male

Longevity: 1 year

Posts: 245

Location: Россия, Новокузнецк

Post 24-Nov-2019 00:54

[Quote]

КВН-2019. Встреча выпускников
Год выпуска: 2019
Жанр: Юмор
Выпущено: Россия, АМИК, Первый канал
Ведущий: Александр Масляков
О фильме: На одной сцене встретятся команды, которые, уже закончив свою карьеру в КВН, остаются популярны и сегодня. Для кого-то это будет реванш, для кого-то — еще одна попытка доказать свое превосходство. Игра войдет в историю и запомнится как самая большая и теплая встреча с любимыми кавээнщиками. Ведь, как и в школе, встреча выпускников Клуба — это лишний повод увидеть старых и добрых друзей по кавээновской сцене.
Качество: HDTVRip
Видео: XviD, 1797 Кбит/с, 720х400, 25 кадр/с
Аудио: Русский (AC3, 2 ch, 192 Кбит/с)
Продолжительность: 02:16:37
Перевод: Не требуется
Субтитры: нет

Скриншоты


MediaInfo

Общее
Полное имя : D:KVN-2019. Vstrecha vypusknikov.HDTVRip.GeneralFilm.avi
Формат : AVI
Формат/Информация : Audio Video Interleave
Размер файла : 1,91 Гбайт
Продолжительность : 2 ч. 16 м.
Общий поток : 2001 Кбит/сек
Видео
Идентификатор : 0
Формат : MPEG-4 Visual
Профиль формата : Advanced Simple@L5
Параметр BVOP формата : 1
Параметр QPel формата : Нет
Параметр GMC формата : Без точки перехода
Параметр матрицы формата : Выборочная
Идентификатор кодека : XVID
Идентификатор кодека/Подсказка : XviD
Продолжительность : 2 ч. 16 м.
Битрейт : 1797 Кбит/сек
Ширина : 720 пикселей
Высота : 400 пикселей
Соотношение сторон : 16:9
Частота кадров : 25,000 кадров/сек
Цветовое пространство : YUV
Субдискретизация насыщенности : 4:2:0
Битовая глубина : 8 бит
Тип развёртки : Прогрессивная
Метод сжатия : С потерями
Бит/(Пиксели*Кадры) : 0.250
Размер потока : 1,72 Гбайт (90%)
Библиотека кодирования : XviD 1.2.1 (UTC 2008-12-04)
Аудио
Идентификатор : 1
Формат : AC-3
Формат/Информация : Audio Coding 3
Расширение режима : CM (complete main)
Параметр Endianness формата : Big
Идентификатор кодека : 2000
Продолжительность : 2 ч. 16 м.
Вид битрейта : Постоянный
Битрейт : 192 Кбит/сек
Каналы : 2 канала
Расположение каналов : Front: L R
Частота : 48,0 КГц
Битовая глубина : 16 бит
Метод сжатия : С потерями
Размер потока : 188 Мбайт (10%)
Выравнивание : Соединение по промежуткам
Продолжительность промежутка : 32 мс. (0,80 видеокадр)

Команды

Сборная Камызякского края по КВНу (Астраханская область).
«Уральские пельмени» (Екатеринбург).
«Город Пятигорск» (Ставропольский край).
Релиз:
[Profile] [PM]
Display posts:    
Reply to topic

Current time is: 07-Dec 07:47

All times are UTC + 3



You cannot post new topics in this forum
You cannot reply to topics in this forum
You cannot edit your posts in this forum
You cannot delete your posts in this forum
You cannot vote in polls in this forum
You cannot attach files in this forum
You cannot download files in this forum