Король Лев / The Lion King (2019) BDRip-AVC от Files-x | Лицензия

Reply to topic
 
Author Message

papa1951deda ®

Gender: Male

Longevity: 1 year

Posts: 407

Location: Казахстан

Post 27-Nov-2019 15:28

[Quote]

Король Лев / The Lion King Год выпуска: 2019
Жанр: Мультфильм, мюзикл, драма, приключения, семейный, ремейк
Выпущено: США, Walt Disney Pictures, Fairview Entertainment
Режиссер: Джон Фавро
В ролях: Джеймс Эрл Джонс, Дональд Гловер, Чиветел Эджиофор, Джон Оливер, Джон Кани, Элфри Вудард, Джейдон Маккрэри, Шахади Райт Джозеф, Пенни Джонсон, Кигэн-Майкл Ки
О фильме: Львенок Симба с раннего детства знал, что однажды станет Королем Львом. Потеря отца, величественного и бесстрашного Муфасы, вероломство дяди, захватившего власть; чувство вины, бегство из прайда, новые друзья и философия беззаботности «акуна матата» вынуждают Симбу забыть о своем предназначении. Но царству зверей по-прежнему нужен настоящий король, и однажды он вспомнит дорогу домой.
Качество: BDRip-AVC
Видео: MPEG-4 AVC, 2026 Кбит/с, 720x400, 23.976 кадр/с
Аудио: AC3, 6 ch, 448 Кбит/с
Продолжительность: 01:58:15
Перевод: Дублированный
Cубтитры: нет

Скриншоты

MediaInfo

General
Unique ID : 239190855266058363020194286743863048657 (0xB3F27BA9B13CBDF98C5B4436AB3639D1)
Complete name : C:\Users\user\Downloads\Video\The Lion King.(2019).BDRip.Files-x.mkv
Format : Matroska
File size : 2.04 GiB
Duration : 1h 58mn
Overall bit rate : 2 476 Kbps
Encoded date : UTC 2019-11-27 09:47:07
Writing application : mkvmerge v7.8.0 ('River Man') 32bit built on Apr 3 2015 12:11:22
Writing library : libebml v1.3.1 + libmatroska v1.4.2
Video
ID : 1
Format : AVC
Format/Info : Advanced Video Codec
Format profile : High@L4.1
Format settings, CABAC : Yes
Format settings, ReFrames : 10 frames
Codec ID : V_MPEG4/ISO/AVC
Duration : 1h 58mn
Bit rate : 2 026 Kbps
Width : 720 pixels
Height : 400 pixels
Display aspect ratio : 16:9
Frame rate : 23.976 fps
Color space : YUV
Chroma subsampling : 4:2:0
Bit depth : 8 bits
Scan type : Progressive
Bits/(Pixel*Frame) : 0.293
Stream size : 1.63 GiB (80%)
Writing library : x264 core 146 r2538 121396c
Encoding settings : cabac=1 / ref=10 / deblock=1:-2:-1 / analyse=0x3:0x133 / me=umh / subme=11 / psy=1 / psy_rd=1.00:0.08 / mixed_ref=1 / me_range=32 / chroma_me=1 / trellis=2 / 8x8dct=1 / cqm=0 / deadzone=21,11 / fast_pskip=0 / chroma_qp_offset=-3 / threads=18 / lookahead_threads=3 / sliced_threads=0 / nr=0 / decimate=1 / interlaced=0 / bluray_compat=0 / constrained_intra=0 / bframes=11 / b_pyramid=2 / b_adapt=2 / b_bias=0 / direct=1 / weightb=1 / open_gop=0 / weightp=2 / keyint=250 / keyint_min=23 / scenecut=40 / intra_refresh=0 / rc=2pass / mbtree=0 / bitrate=2026 / ratetol=1.0 / qcomp=0.60 / qpmin=0 / qpmax=69 / qpstep=4 / cplxblur=20.0 / qblur=0.5 / ip_ratio=1.40 / pb_ratio=1.30 / aq=2:1.00
Color primaries : BT.709-5, BT.1361, IEC 61966-2-4, SMPTE RP177
Transfer characteristics : BT.709-5, BT.1361
Matrix coefficients : BT.709-5, BT.1361, IEC 61966-2-4 709, SMPTE RP177
Audio
ID : 2
Format : AC-3
Format/Info : Audio Coding 3
Mode extension : CM (complete main)
Codec ID : A_AC3
Duration : 1h 58mn
Bit rate mode : Constant
Bit rate : 448 Kbps
Channel(s) : 6 channels
Channel positions : Front: L C R, Side: L R, LFE
Sampling rate : 48.0 KHz
Bit depth : 16 bits
Compression mode : Lossy
Stream size : 379 MiB (18%)
Релиз от:
[Profile] [PM]
Display posts:    
Reply to topic

Current time is: 07-Dec 08:10

All times are UTC + 3



You cannot post new topics in this forum
You cannot reply to topics in this forum
You cannot edit your posts in this forum
You cannot delete your posts in this forum
You cannot vote in polls in this forum
You cannot attach files in this forum
You cannot download files in this forum