Квартирник у Маргулиса Гарик Сукачёв [эфир 02.12] (2018) HDTV 1080i

Reply to topic
 
Author Message

Мухич ®

Gender: Male

Longevity: 5 months 4 days

Posts: 53

Post 03-Dec-2018 11:19

[Quote]

Квартирник у Маргулиса
Год выпуска: 2018
Жанр: Концерт
Выпущено: Россия, Телеканал НТВ HD
Ведущий: Евгений Маргулис
О фильме: "Квартирник" — это необычный формат, подкупающий неформальностью и живой творческой атмосферой. В гости к Евгению Маргулису приходят известные музыканты и камерно, под гитару, исполняют свои лучшие песни и новые композиции. Если раньше о том, кто придет в студию, зрители узнавали заранее, то теперь интрига сохранится вплоть до самого эфира и сделает квартирник еще более закрытым мероприятием для настоящих ценителей хорошей музыки

Качество: HDTV 1080i
Видео: MPEG-4 AVC, 8095 Кбит/с, 1920x1080
Аудио: MP2, 2 ch, 192 Кбит/с
Продолжительность: ~ 00:51:00
Перевод: Не требуется
Субтитры: Нет

Скриншоты

MediaInfo

General
ID : 1 (0x1)
Complete name : C:\Квартирник НТВ у Маргулиса. День рождения Гарик Сукачёв 2018.12.02.ts
Format : MPEG-TS
File size : 5.48 GiB
Duration : 1 h 29 min
Overall bit rate mode : Variable
Overall bit rate : 8 720 kb/s
Video
ID : 201 (0xC9)
Menu ID : 2201 (0x899)
Format : AVC
Format/Info : Advanced Video Codec
Format profile : High@L4
Format settings : CABAC / 4 Ref Frames
Format settings, CABAC : Yes
Format settings, ReFrames : 4 frames
Codec ID : 27
Duration : 1 h 29 min
Bit rate : 8 095 kb/s
Width : 1 920 pixels
Height : 1 080 pixels
Display aspect ratio : 16:9
Frame rate : 25.000 FPS
Standard : Component
Color space : YUV
Chroma subsampling : 4:2:0
Bit depth : 8 bits
Scan type : Interlaced
Scan type, store method : Separated fields
Scan order : Top Field First
Bits/(Pixel*Frame) : 0.156
Stream size : 5.09 GiB (93%)
Color range : Limited
Color primaries : BT.709
Transfer characteristics : BT.709
Matrix coefficients : BT.709
Audio
ID : 301 (0x12D)
Menu ID : 2201 (0x899)
Format : MPEG Audio
Format version : Version 1
Format profile : Layer 2
Codec ID : 3
Duration : 1 h 29 min
Bit rate mode : Constant
Bit rate : 192 kb/s
Channel(s) : 2 channels
Sampling rate : 48.0 kHz
Frame rate : 41.667 FPS (1152 SPF)
Compression mode : Lossy
Stream size : 124 MiB (2%)
Language : Russian

Треклист

01. Wolves
01. Гори-гори
02. Ничего не надо
03. За гагарой с черным пером
04. Жить на земле без любви невозможно
05. Высоцкий - Песня о госпитале
06. Флейта-позвоночник - Маяковский, стихи
07. Сколько можно терпеть
08. Скорый поезд придёт ровно в шесть часов
09. Ольга
10. Нулевой километр
11. Маленькое тигровое колечко
12. Невезение
13. Знаю я, есть края
14. Вальс Москва
Автор релиза: kuzmichm2196
[Profile] [PM]
Display posts:    
Reply to topic

Current time is: 24-Apr 15:02

All times are UTC + 3



You cannot post new topics in this forum
You cannot reply to topics in this forum
You cannot edit your posts in this forum
You cannot delete your posts in this forum
You cannot vote in polls in this forum
You cannot attach files in this forum
You cannot download files in this forum