Discovery. Миллионы Пабло Эскобара / Finding Escobar’s Millions [2 сезон:1 серия] (2019) HDTVRip 720з от Starik60

Reply to topic
 
Author Message

Starik60 ®

Gender: Male

Longevity: 1 year

Posts: 191

Location: Москва, Россия

Post 01-Dec-2019 14:34

[Quote]

Миллионы Пабло Эскобара / Finding Escobar’s Millions
Год выпуска: 2019
Жанр: Документальный, криминал, поиски
Выпущено: США, Discovery Communications, LLC.
В ролях: Дуглас Локс, Бен Смит, Крис Файстл, Пол Бауман, Аластер МакКлимонт, Джон Хаиро Веласкес В., Джо Тофт, Пабло Эскобар, Хуан Эстебан, Луз Мария Эскобар
О фильме: По официальным данным, самый богатый наркобарон в истории Пабло Эскобар при жизни обладал состоянием более 30 млрд долларов, однако не исключено, что денег у него было еще больше. Новая программа «Миллионы Пабло Эскобара» призвана пролить свет на эту тайну. Два бывших агента ЦРУ в сопровождении съемочной группы отправятся на поиски миллионов, спрятанных, если верить городским легендам, где-то в дебрях Центральной Америки. С собой они берут самую современную поисковую технику, в том числе радар, способный обнаруживать объекты под землей. И если деньги Эскобара будут найдены, Discovery Channel станет единственным каналом, который засвидетельствует этот исторический момент. Чем увенчается экспедиция, узнаем совсем скоро!

Качество: HDTVRip (720p)
Видео: MPEG-4 AVC, ~ 4000 Кбит/с, 1280x720
Аудио: Русский (MP2, 2 ch, 192 Кбит/с)
Продолжительность: 1 х ~ 00:44:00
Перевод: Профессиональный двухголосый

Скриншоты




MediaInfo


General
Unique ID : 198618538204908741871065557491200600940 (0x956C89FD78D357C6A5DE595B35BCAB6C)
Complete name : G:\Раздачи 2\Миллионы Пабло Эскобара S02 HDTVRip 720p Starik60\01 Миллионы Пабло Эскобара by Starik60.mkv
Format : Matroska
Format version : Version 4 / Version 2
File size : 1.29 GiB
Duration : 43 min 53 s
Overall bit rate mode : Constant
Overall bit rate : 4 193 kb/s
Encoded date : UTC 2019-12-01 11:11:14
Writing application : mkvmerge v7.8.0 ('River Man') 64bit built on Mar 27 2015 16:31:37
Writing library : libebml v1.3.1 + libmatroska v1.4.2 / Lavf54.63.104
Cover : Yes
Attachments : cover3.jpg
Video
ID : 1
Format : AVC
Format/Info : Advanced Video Codec
Format profile : High@L4.1
Format settings : CABAC / 3 Ref Frames
Format settings, CABAC : Yes
Format settings, ReFrames : 3 frames
Codec ID : V_MPEG4/ISO/AVC
Duration : 43 min 53 s
Bit rate mode : Constant
Bit rate : 4 000 kb/s
Width : 1 280 pixels
Height : 720 pixels
Display aspect ratio : 16:9
Frame rate mode : Constant
Frame rate : 50.000 FPS
Standard : PAL
Color space : YUV
Chroma subsampling : 4:2:0
Bit depth : 8 bits
Scan type : Progressive
Bits/(Pixel*Frame) : 0.087
Stream size : 1.23 GiB (95%)
Default : No
Forced : No
Color range : Limited
Color primaries : BT.709
Transfer characteristics : BT.709
Matrix coefficients : BT.709
Audio
ID : 2
Format : MPEG Audio
Format version : Version 1
Format profile : Layer 2
Codec ID : A_MPEG/L2
Codec ID/Hint : MP2
Duration : 43 min 53 s
Bit rate mode : Constant
Bit rate : 192 kb/s
Channel(s) : 2 channels
Sampling rate : 48.0 kHz
Frame rate : 41.667 FPS (1152 SPF)
Compression mode : Lossy
Delay relative to video : 4 ms
Stream size : 60.3 MiB (5%)
Language : English
Default : Yes
Forced : No

Внимание! Раздача ведётся путём добавления новых серий!

Внимание! Раздача ведётся путём добавления новых серий; при каждом добавлении создfётся новый торрент. Чтобы начать докачку новой серии, пользователям необходимо сделать следующее: (1) остановить скачивание, (2) удалить старый торрент у себя из клиента (старые серии удалять не надо), (3) скачать новый торрент и запустить его у себя в клиенте вместо старого, при этом указать клиенту путь в старую папку куда и должно происходить скачивание новых серий.
Ваш клиент при этом должен произвести хеширование (проверку) старой папки (если не производит сам - помогите ему сделать это), и будет докачивать только те серии которых у вас ещё нет. Старые серии при этом не удаляются, а продолжают раздаваться!
Eсли вы уже удалили старые серии, то предотвратить повторную закачку старых серий можно, отжав галочку в соответсвующих местах при запуске нового торрента.
Благодарю за постер ValkiriaGF
Релиз от:
[Profile] [PM]
Display posts:    
Reply to topic

Current time is: 07-Dec 07:35

All times are UTC + 3



You cannot post new topics in this forum
You cannot reply to topics in this forum
You cannot edit your posts in this forum
You cannot delete your posts in this forum
You cannot vote in polls in this forum
You cannot attach files in this forum
You cannot download files in this forum