Дискотека 80-х Авторадио (2019-2020) HDTVRip от GeneralFilm

Reply to topic
 
Author Message

vsobbol ®

Gender: Male

Longevity: 1 year 4 months

Posts: 502

Location: Донецк

Post 04-Jan-2020 18:21

[Quote]

Дискотека 80-х Авторадио
Год выпуска: 2020
Жанр: Концерт
Выпущено: Россия, Первый канал
В ролях: Thomas Anders, Руки Вверх, Bad Boys Blue, Владимир Маркин, Pupo, Вячеслав Добрынин, Sandra, Alphaville, C.C. Catch, Олег Газманов и др...
О фильме: Главное музыкальное событие года - Дискотека 80-х от Авторадио! С каждым годом фестиваль Авторадио становится все более масштабным. Сегодня Дискотека 80-х - не просто праздник поколения, возвращающий зрителей во времена их юности, а современное, неординарное и динамичное супершоу, привлекающее зрителей самых разных возрастов. Мы имели возможность увидеть это фантастическое, захватывающее шоу, в котором гармонично сочетаются великолепные мелодии 80-х, красочные костюмы участников, ультрасовременная сценография, эффектные постановки и оригинальные творческие идеи.
Качество: HDTVRip
Видео: XviD build 73, 720x400 (16:9), 25.000 fps, 2004 Kbps (0.278 bit/pixel)
Аудио: 48.0 kHz, AC3, 2/0 ch, 192 kbps
Продолжительность: 01:58:35
Перевод: Не требуется
Cубтитры: нет

Скриншоты



MediaInfo

General
Complete name : D:\Razdachi\Diskoteka.80.2019.HDTVRip.GeneralFilm.avi
Format : AVI
Format/Info : Audio Video Interleave
File size : 1.83 GiB
Duration : 1 h 58 min
Overall bit rate : 2 206 kb/s
Writing application : VirtualDubMod 1.5.10.3 | www.virtualdub-fr.org || (build 2550/release)
Writing library : VirtualDubMod build 2550/release
Video
ID : 0
Format : MPEG-4 Visual
Format profile : Advanced Simple@L5
Format settings : BVOP1 / Custom Matrix
Format settings, BVOP : 1
Format settings, QPel : No
Format settings, GMC : No warppoints
Format settings, Matrix : Custom
Codec ID : XVID
Codec ID/Hint : XviD
Duration : 1 h 58 min
Bit rate : 2 004 kb/s
Width : 720 pixels
Height : 400 pixels
Display aspect ratio : 16:9
Frame rate : 25.000 FPS
Color space : YUV
Chroma subsampling : 4:2:0
Bit depth : 8 bits
Scan type : Progressive
Compression mode : Lossy
Bits/(Pixel*Frame) : 0.278
Stream size : 1.66 GiB (91%)
Writing library : XviD 73
Audio
ID : 1
Format : AC-3
Format/Info : Audio Coding 3
Commercial name : Dolby Digital
Codec ID : 2000
Duration : 1 h 58 min
Bit rate mode : Constant
Bit rate : 192 kb/s
Channel(s) : 2 channels
Channel layout : L R
Sampling rate : 48.0 kHz
Frame rate : 31.250 FPS (1536 SPF)
Compression mode : Lossy
Stream size : 163 MiB (9%)
Alignment : Split across interleaves
Interleave, duration : 40 ms (1.00 video frame)
Interleave, preload duratio : 500 ms
Service kind : Complete Main

Треклист

01. Thomas Anders - «You`re My Heart You`re My Soul»
02. Thomas Anders - «Brother Louie»
03. Thomas Anders - «Cheri Cheri Lady»
04. Руки Вверх - «Он тебя целует»
05. Руки Вверх - «18 мне уже»
06. Bad Boys Blue - «Pretty Young Girl»
07. Bad Boys Blue - «You’re a Woman»
08. Владимир Маркин - «Я готов целовать песок»
09. Pupo - «Gelato Al Cioccolato»
10. Pupo - «Un Amore Grande»
11. «Здравствуй, песня» - «Синий иней»
12. Вячеслав Добрынин - «Попурри» («Всё, что в жизни есть у меня», «Кто тебе сказал?», «Синий туман», «Не сыпь мне соль на рану», «Колдовское озеро», «Льется музыка»)
13. «Londonbeat» - «You Bring On The Sun»
14. «Londonbeat» - «I’ve Been Thinking About You»
15. Евгений Маргулис - «Старые песни»
16. Евгений Маргулис - «Мой друг лучше всех играет блюз»
17. Андрей Державин / «Сталкер» - «Песня про брата»
18. Андрей Державин / «Сталкер» - «Не плачь, Алиса»
19. Sandra - «Maria Magdalena»
20. Sandra - «In The Heat Of The Night»
21. Дюна - «Привет с большого бодуна»
22. Дюна - «Страна лимония»
23. «Альянс» - «На заре»
24. «Alphaville» - «Forever Young»
25. «Alphaville» - «Big in Japan»
26. Сергей Минаев - «Карнавал»
27. Олег Газманов / «Эскадрон» - «Есаул»
28. Олег Газманов / «Эскадрон» - «Путана»
29. C.C. Catch - «I Can Lose My Heart Tonight»
30. C.C. Catch - «Heaven and Hell»
31. C.C. Catch - «Midnight Gambler»
32. Лев Лещенко - «Прощай»
Релиз от:
[Profile] [PM]
Display posts:    
Reply to topic

Current time is: 06-Apr 06:11

All times are UTC + 3



You cannot post new topics in this forum
You cannot reply to topics in this forum
You cannot edit your posts in this forum
You cannot delete your posts in this forum
You cannot vote in polls in this forum
You cannot attach files in this forum
You cannot download files in this forum