Старые шпионские игры (Паук в паутине) / Spider in the Web (2019) BDRip 1080p | iTunes

Reply to topic
 
Author Message

Monk ®

Gender: Male

Longevity: 1 year 2 months

Posts: 10365

Location: Казань

Post 09-Jan-2020 03:07

[Quote]

Старые шпионские игры (Паук в паутине) / Spider in the Web Год выпуска: 2019
Жанр: Триллер
Выпущено: Великобритания, Израиль, Бельгия, Eran Riklis Productions, Ciné Cri De Coeur, Film Constellation
Режиссер: Эран Риклис
В ролях: Бен Кингсли, Моника Беллуччи, Итай Тиран, Ицик Коэн, Филип Пеетерс, Хильде Ван Мигхем, Макрам Хури, Марсель Хенсема, Люк Винс, Стилиан Кели, Матейс Шеперс, Воутер Ван Лирд
О фильме: В свое время Адерет был одним из лучших секретных агентов в мире. Но время идёт, и вот уже начальство считает его слишком старым и отправляет шпиона в вынужденную отставку. Последний шанс восстановить былую репутацию появляется благодаря секретной операции, которая наводит Адерета на след поставщика химического оружия. Пока он выслеживает Анджелу, руководство посылает за ним молодого оперативника Дэниэла. Вновь ввязавшись в знакомую игру в кошки-мышки, старый разведчик постепенно понимает, что из охотника превратился в жертву.
Качество: BDRip 1080p
Видео: MPEG-4 AVC, 13.6 Mбит/с, 1920x804
Аудио: Русский (AC3, 6 ch, 384 Кбит/с), английский (AC3, 6 ch, 640 Кбит/с)
Продолжительность: 01:53:56
Перевод: Дублированный [iTunes]
Субтитры: Русские, английские

Скриншоты



MediaInfo

General
Unique ID : 140469887145751896102893762236122206426 (0x69AD8425480DB8C1154F34750E9110DA)
Complete name : E:\Video111\Spider.in.the.Web.2019.BDRip.1080p.seleZen.mkv
Format : Matroska
Format version : Version 4
File size : 11.6 GiB
Duration : 1 h 53 min
Overall bit rate : 14.6 Mb/s
Movie name : Spide .in the Web 2019 from селезень
Encoded date : UTC 2020-01-06 08:56:10
Writing application : mkvmerge v40.0.0 ('Old Town Road + Pony') 64-bit
Writing library : libebml v1.3.9 + libmatroska v1.5.2
Video
ID : 1
Format : AVC
Format/Info : Advanced Video Codec
Format profile : High@L4.1
Format settings : CABAC / 5 Ref Frames
Format settings, CABAC : Yes
Format settings, Reference : 5 frames
Codec ID : V_MPEG4/ISO/AVC
Duration : 1 h 53 min
Bit rate : 13.6 Mb/s
Width : 1 920 pixels
Height : 804 pixels
Display aspect ratio : 2.40:1
Frame rate mode : Constant
Frame rate : 24.000 FPS
Color space : YUV
Chroma subsampling : 4:2:0
Bit depth : 8 bits
Scan type : Progressive
Bits/(Pixel*Frame) : 0.366
Stream size : 10.8 GiB (93%)
Title : playHD
Writing library : x264 core 146 r2538 121396c
Encoding settings : cabac=1 / ref=5 / deblock=1:-3:-3 / analyse=0x3:0x133 / me=umh / subme=10 / psy=1 / psy_rd=1.00:0.00 / mixed_ref=1 / me_range=32 / chroma_me=1 / trellis=2 / 8x8dct=1 / cqm=0 / deadzone=21,11 / fast_pskip=0 / chroma_qp_offset=-2 / threads=6 / lookahead_threads=1 / sliced_threads=0 / nr=0 / decimate=0 / interlaced=0 / bluray_compat=0 / constrained_intra=0 / bframes=9 / b_pyramid=2 / b_adapt=2 / b_bias=0 / direct=3 / weightb=1 / open_gop=0 / weightp=2 / keyint=250 / keyint_min=24 / scenecut=40 / intra_refresh=0 / rc=crf / mbtree=0 / crf=15.0 / qcomp=0.60 / qpmin=0 / qpmax=69 / qpstep=4 / ip_ratio=1.40 / pb_ratio=1.30 / aq=3:0.80
Language : English
Default : Yes
Forced : No
Audio #1
ID : 2
Format : AC-3
Format/Info : Audio Coding 3
Commercial name : Dolby Digital
Codec ID : A_AC3
Duration : 1 h 53 min
Bit rate mode : Constant
Bit rate : 384 kb/s
Channel(s) : 6 channels
Channel layout : L R C LFE Ls Rs
Sampling rate : 48.0 kHz
Frame rate : 31.250 FPS (1536 SPF)
Compression mode : Lossy
Stream size : 313 MiB (3%)
Title : iTunes
Language : Russian
Service kind : Complete Main
Default : Yes
Forced : Yes
Audio #2
ID : 3
Format : AC-3
Format/Info : Audio Coding 3
Commercial name : Dolby Digital
Codec ID : A_AC3
Duration : 1 h 53 min
Bit rate mode : Constant
Bit rate : 640 kb/s
Channel(s) : 6 channels
Channel layout : L R C LFE Ls Rs
Sampling rate : 48.0 kHz
Frame rate : 31.250 FPS (1536 SPF)
Compression mode : Lossy
Stream size : 522 MiB (4%)
Title : Original
Language : English
Service kind : Complete Main
Default : No
Forced : No
Text #1
ID : 4
Format : UTF-8
Codec ID : S_TEXT/UTF8
Codec ID/Info : UTF-8 Plain Text
Duration : 1 h 47 min
Bit rate : 2 b/s
Count of elements : 58
Stream size : 2.35 KiB (0%)
Title : Forced
Language : Russian
Default : Yes
Forced : Yes
Text #2
ID : 5
Format : UTF-8
Codec ID : S_TEXT/UTF8
Codec ID/Info : UTF-8 Plain Text
Duration : 1 h 47 min
Bit rate : 80 b/s
Count of elements : 1162
Stream size : 63.7 KiB (0%)
Title : Full
Language : Russian
Default : No
Forced : No
Text #3
ID : 6
Format : UTF-8
Codec ID : S_TEXT/UTF8
Codec ID/Info : UTF-8 Plain Text
Duration : 1 h 44 min
Bit rate : 53 b/s
Count of elements : 1498
Stream size : 40.8 KiB (0%)
Title : Full
Language : English
Default : No
Forced : No
Menu
00:00:00.000 : en:Chapter 01
00:09:27.875 : en:Chapter 02
00:18:54.167 : en:Chapter 03
00:27:00.208 : en:Chapter 04
00:35:57.792 : en:Chapter 05
00:45:08.833 : en:Chapter 06
00:55:24.833 : en:Chapter 07
01:05:56.583 : en:Chapter 08
01:15:12.208 : en:Chapter 09
01:26:26.917 : en:Chapter 10
01:41:48.250 : en:Chapter 11
01:48:40.833 : en:Chapter 12
[Profile] [PM]
Display posts:    
Reply to topic

Current time is: 27-Jan 06:11

All times are UTC + 3



You cannot post new topics in this forum
You cannot reply to topics in this forum
You cannot edit your posts in this forum
You cannot delete your posts in this forum
You cannot vote in polls in this forum
You cannot attach files in this forum
You cannot download files in this forum