Человек и закон [эфир 10.01] (2020) SATRip от GeneralFilm

Reply to topic
 
Author Message

Starik60 ®

Gender: Male

Longevity: 1 year 9 months

Posts: 249

Location: Москва, Россия

Post 10-Jan-2020 11:42

[Quote]

Человек и закон
Год выпуска: 2020
Жанр: Документальный, расследование
Выпущено: Россия, Телекомпания "Останкино"
Режиссер: Денис Пиманов
Ведущий: Алексей Пиманов
О фильме: Общественно-политическая программа "Человек и закон" выходит на главном телеканале страны уже 35 лет (Алексей Пиманов ведет программу с 1996 года). Столь "преклонный возраст" ничуть не мешает программе оставаться одной из самых востребованных и актуальных на отечественном телевидении. Быть может потому, что основные темы - борьба с организованной преступностью, расследования о коррупции в высших эшелонах власти, криминальные истории…
Официальный сайт
Качество: SATRip
Видео: XviD, 1600 Кбит/с, 720x400
Аудио: AC3, 2 ch, 192 Кбит/с
Продолжительность: 00:51:00
Перевод: Не требуется

Скриншоты



MediaInfo


General
Complete name : G:\Temp\Человек и закон 10.01.2020.GeneralFilm.avi
Format : AVI
Format/Info : Audio Video Interleave
File size : 632 MiB
Duration : 49 min 3 s
Overall bit rate : 1 802 kb/s
Writing application : VirtualDubMod 1.5.10.3 | www.virtualdub-fr.org || (build 2550/release)
Writing library : VirtualDubMod build 2550/release
Video
ID : 0
Format : MPEG-4 Visual
Format profile : Advanced Simple@L5
Format settings : BVOP1 / Custom Matrix
Format settings, BVOP : 1
Format settings, QPel : No
Format settings, GMC : No warppoints
Format settings, Matrix : Custom
Codec ID : XVID
Codec ID/Hint : XviD
Duration : 49 min 3 s
Bit rate : 1 600 kb/s
Width : 720 pixels
Height : 400 pixels
Display aspect ratio : 16:9
Frame rate : 25.000 FPS
Color space : YUV
Chroma subsampling : 4:2:0
Bit depth : 8 bits
Scan type : Progressive
Compression mode : Lossy
Bits/(Pixel*Frame) : 0.222
Stream size : 561 MiB (89%)
Writing library : XviD 73
Audio
ID : 1
Format : AC-3
Format/Info : Audio Coding 3
Commercial name : Dolby Digital
Codec ID : 2000
Duration : 49 min 3 s
Bit rate mode : Constant
Bit rate : 192 kb/s
Channel(s) : 2 channels
Channel layout : L R
Sampling rate : 48.0 kHz
Frame rate : 31.250 FPS (1536 SPF)
Bit depth : 16 bits
Compression mode : Lossy
Stream size : 67.4 MiB (11%)
Alignment : Split accross interleaves
Interleave, duration : 40 ms (1.00 video frame)
Interleave, preload duratio : 500 ms
Service kind : Complete Main

Содержание


Как страна встретила Новый год. Праздничные салюты — как огонь! В новогоднюю ночь палили в Питере, Казани, Краснодаре, Новосибирске, Уфе. Страдали и квартиры от пожаров, и сами пироманы от травм. На острове Русском около 40 машин провалились под лед. Все горе-рыбаки живы. Двое экстремалов из Красноярска решили незабываемо отметить Новый год — прыгнули с парашютами с 24-го этажа жилого дома. А в Волжском не сильно адекватные молодые ребята очень хотели потанцевать у праздничной елки вместе со Снегурочкой и ее дедом. Попали в обезьянник. В Санкт-Петербурге рэп-баттл дедов Морозов закончился дракой. Ушедший 2019-й был годом свиньи. Как в тюменском супермаркете оказались три живые свинки до сих пор гадают удивленные посетители. Незваные гости поели и даже попили. Точнее, выпили. За все хорошее против всего плохого. Прославилась и журналистка белорусского телевидения во время дежурства в новогоднюю ночь на главной площади Минска. Вела прямой эфир о забеге трезвости. Но все никак не могла собраться. А в Карачаево-Черкессии мужчине в буквальном смысле «упал на голову» шар с письмом к Санте от 9-летней девочке из Австрии. Всем селом собирали подарки и придумывали поздравления.
Экстремальные диеты и нестандартные способы похудения. Что такое «диета спящей красавицы» (ее смысл — замена еды на кровать и подушку). Алкогольная диета — когда вместо борща и котлетки с пюре — утром, в обед и перед сном — бокал-другой вина. Шок-диета на ватных шариках, смоченных в бульоне. Испытано на себе.
О силе духа и мужестве. Доктор, профессионально боровшийся с раком желудка в прямом эфире на глазах тысяч и тысяч, в итоге так и не смог победить коварную болезнь. Онколог Андрей Павленко остался навсегда в памяти программы — своим особым отношением к жизни и к смерти.
The Economist. В конце каждого года влиятельный английский журнал выходит с ребусом на главной странице — зашифрованными предсказаниями на будущее. И этот декабрь не стал исключением. Обложка — будто таблица Сивцева для проверки остроты зрения. Самое первое слово аршинными буквами TRUMP, последнее значками меньше горошины — Russia. Разбираемся.
Рязань. Программа продолжает следить за героями своих сюжетов. После нашего громкого расследования парнишка, который лишился единственного жилья по вине черных риэлторов, смог получить квартирку по социальному найму как малоимущий. А вот уголовное дело по факту мошенничества в особо крупном размере возбудить так и не удалось — истек срок исковой давности.
Технология мошенничества. Распродажи. Семь раз отмерь и один отрежь. Что нужно знать, отправляясь по магазинам за подарками. Какие капканы подстерегают заядлых шопоголиков в интернете. И как на самом деле можно сэкономить.
Релиз от:
[Profile] [PM]
Display posts:    
Reply to topic

Current time is: 13-Aug 11:08

All times are UTC + 3



You cannot post new topics in this forum
You cannot reply to topics in this forum
You cannot edit your posts in this forum
You cannot delete your posts in this forum
You cannot vote in polls in this forum
You cannot attach files in this forum
You cannot download files in this forum