Давай разведемся! (2019) WEBRip-AVC от Files-х

Reply to topic
 
Author Message

Серый1779 ®

Gender: Male

Longevity: 1 year 9 months

Posts: 1099

Location: Украина

Post 11-Jan-2020 21:19

[Quote]

Давай разведемся! Год выпуска: 2019
Жанр: Комедия
Выпущено: Россия
Режиссер: Анна Пармас
В ролях: Анна Михалкова, Антон Филипенко, Светлана Камынина, Максим Лагашкин, Федор Лавров, Анна Рыцарева, Надежда Маркина, Сергей Рост, Дарья Румянцева, Майя Скородумова и др
О фильме: Успешный врач Маша поглощена работой и не сразу замечает, что от нее уходит муж. Жизнь переворачивается вверх дном: на работе аврал, дети требуют постоянного внимания, а привыкшая побеждать Маша не готова уступить любимого мужа красотке фитнес-тренеру. Маша призывает на помощь полный боевой арсенал, включая потусторонние силы. Но новая жизнь открывает новые возможности…
Качество: WEBRip-AVC
Видео: MPEG-4 AVC, ~ 2064 Кбит/с, 1024x432, 25 кадр/с
Аудио: AC3, 2 ch, 192 Кбит/с
Продолжительность: 01:32:19
Перевод / Озвучка: Не требуется [Русский]
Cубтитры: нет

Скриншоты


MediaInfo

General
Unique ID : 240326130831849326071395476877040880780 (0xB4CD2111DC44322B80C8BE654A630C8C)
Complete name : F:\Davaj Razvedemsya.(2019).WEB-DLRip.(AVC).by.Серый1779.Files-x.mkv
Format : Matroska
Format version : Version 2
File size : 1.45 GiB
Duration : 1 h 32 min
Overall bit rate : 2 256 kb/s
Encoded date : UTC 2020-01-11 16:16:40
Writing application : mkvmerge v7.8.0 ('River Man') 32bit built on Apr 3 2015 12:11:22
Writing library : libebml v1.3.1 + libmatroska v1.4.2
Video
ID : 1
Format : AVC
Format/Info : Advanced Video Codec
Format profile : High@L4.1
Format settings : CABAC / 10 Ref Frames
Format settings, CABAC : Yes
Format settings, RefFrames : 10 frames
Codec ID : V_MPEG4/ISO/AVC
Duration : 1 h 32 min
Bit rate : 2 064 kb/s
Width : 1 024 pixels
Height : 432 pixels
Display aspect ratio : 2.40:1
Frame rate mode : Constant
Frame rate : 25.000 FPS
Color space : YUV
Chroma subsampling : 4:2:0
Bit depth : 8 bits
Scan type : Progressive
Bits/(Pixel*Frame) : 0.187
Stream size : 1.30 GiB (89%)
Writing library : x264 core 146 r2538 121396c
Encoding settings : cabac=1 / ref=10 / deblock=1:-2:-1 / analyse=0x3:0x133 / me=umh / subme=11 / psy=1 / psy_rd=1.00:0.08 / mixed_ref=1 / me_range=32 / chroma_me=1 / trellis=2 / 8x8dct=1 / cqm=0 / deadzone=21,11 / fast_pskip=0 / chroma_qp_offset=-3 / threads=18 / lookahead_threads=3 / sliced_threads=0 / nr=0 / decimate=1 / interlaced=0 / bluray_compat=0 / constrained_intra=0 / bframes=11 / b_pyramid=2 / b_adapt=2 / b_bias=0 / direct=1 / weightb=1 / open_gop=0 / weightp=2 / keyint=250 / keyint_min=25 / scenecut=40 / intra_refresh=0 / rc=2pass / mbtree=0 / bitrate=2064 / ratetol=1.0 / qcomp=0.60 / qpmin=0 / qpmax=69 / qpstep=4 / cplxblur=20.0 / qblur=0.5 / ip_ratio=1.40 / pb_ratio=1.30 / aq=2:1.00
Default : Yes
Forced : No
Color range : Limited
Color primaries : BT.709
Transfer characteristics : BT.709
Matrix coefficients : BT.709
Audio
ID : 2
Format : AC-3
Format/Info : Audio Coding 3
Format settings, Endianness : Big
Codec ID : A_AC3
Duration : 1 h 32 min
Bit rate mode : Constant
Bit rate : 192 kb/s
Channel(s) : 2 channels
Channel positions : Front: L R
Sampling rate : 48.0 kHz
Frame rate : 31.250 FPS (1536 SPF)
Bit depth : 16 bits
Compression mode : Lossy
Stream size : 127 MiB (9%)
Service kind : Complete Main
Default : Yes
Forced : No
Релиз от:

Release was prepared by RG Files-x

[Profile] [PM]
Display posts:    
Reply to topic

Current time is: 13-Aug 10:54

All times are UTC + 3



You cannot post new topics in this forum
You cannot reply to topics in this forum
You cannot edit your posts in this forum
You cannot delete your posts in this forum
You cannot vote in polls in this forum
You cannot attach files in this forum
You cannot download files in this forum