Необыкновенный Огонёк (2020) WEBRip от Files-x

Reply to topic
 
Author Message

papa1951deda ®

Gender: Male

Longevity: 1 year 8 months

Posts: 649

Location: Казахстан

Post 12-Jan-2020 10:13

[Quote]

Необыкновенный Огонёк Год выпуска: 2020
Жанр: Концерт
Выпущено: Россия, ВГТРК
Ведущий: Марина Кравец, Тимур Родригез
О фильме: "Голубой Огонек" многие годы является неотъемлемым атрибутом празднования Нового года. Но авторы авантюрного и не похожего на все остальные новогоднего шоу "Необыкновенный Огонек" решительно ломают стереотипы! Теперь оба "Огонька" мирно сосуществуют на телеканале "Россия". Посмотрите оба! Шоу "Необыкновенный Огонек–2020" обещает быть ярким и насыщенным. В этот вечер кумиры публики предстанут перед своими поклонниками в самых неожиданных амплуа. Несмотря на то, что полный список музыкальных номеров и участников держится в секрете, с уверенностью можно сказать одно: подобного вы не увидите больше нигде!
Качество: WEBRip
Видео: XviD, ~ 2000 Кбит/с, 720x400, 25 кадр/с
Аудио: A3, 2 ch, 192 Кбит
Продолжительность: 01:24:00
Перевод: Не требуется

Скриншоты

MediaInfo

General
Complete name: H:\Необыкновенный Огонек.2020.WEB-DLRip. Files-x..avi
Format: AVI
Format/Info: Audio Video Interleave
File size: 1.23 GiB
Duration: 1h 24mn
Overall bit rate: 2 080 Kbps
Writing application: VirtualDubMod 1.5.10.3 | www.virtualdub-fr.org || (build 2550/release)
Writing library: VirtualDubMod build 2550/release
Video
ID: 0
Format: MPEG-4 Visual
Format profile: Advanced Simple@L5
Format settings, BVOP: 2
Format settings, QPel: No
Format settings, GMC: No warppoints
Format settings, Matrix: Custom
Codec ID: XVID
Codec ID/Hint: XviD
Duration: 1h 24mn
Bit rate: 2 000 Kbps
Width: 720 pixels
Height: 400 pixels
Display aspect ratio: 16:9
Frame rate: 25.000 fps
Color space: YUV
Chroma subsampling: 4:2:0
Bit depth: 8 bits
Scan type: Progressive
Compression mode: Lossy
Bits/(Pixel*Frame): 0.278
Stream size: 1.18 GiB (96%)
Writing library: XviD 73
Audio
ID: 1
Format: AC-3
Format/Info: Audio Coding 3
Mode extension: CM (complete main)
Codec ID: 2000
Duration: 32mn 13s
Bit rate mode: Constant
Bit rate: 192 Kbps
Channel(s): 2 channels
Channel positions: Front: L R
Sampling rate: 48.0 KHz
Bit depth: 16 bits
Compression mode: Lossy
Stream size: 44.3 MiB (4%)
Alignment: Split accross interleaves
Interleave, duration: 105 ms (2.63 video frames)
Interleave, preload duration: 500 ms
Релиз от:

Release was prepared by RG Files-x

[Profile] [PM]

papa1951deda ®

Gender: Male

Longevity: 1 year 8 months

Posts: 649

Location: Казахстан

Post 12-Jan-2020 13:10 (after 2 hours 56 minutes)

[Quote]

Обновление
[Profile] [PM]
Display posts:    
Reply to topic

Current time is: 13-Aug 12:12

All times are UTC + 3



You cannot post new topics in this forum
You cannot reply to topics in this forum
You cannot edit your posts in this forum
You cannot delete your posts in this forum
You cannot vote in polls in this forum
You cannot attach files in this forum
You cannot download files in this forum