Discovery. Аляска: Последний рубеж / Alaska: The Last Frontier [8 сезон: 1-3 серии] (2018) HDTVRip 720p от GeneralFilm

Reply to topic
 
Author Message

Starik60 ®

Gender: Male

Longevity: 1 year 2 months

Posts: 206

Location: Москва, Россия

Post 12-Jan-2020 15:11

[Quote]

Аляска: Последний рубеж / Alaska: The Last Frontier
Год выпуска: 2018
Жанр: Документальный, выживание
Выпущено: США, Discovery Channel
В ролях: АТЦ Ли Килчер, Отто Килчер, Эйвин Килчер, АТЦ Килчер, Шарлотта Килчер, Ева Килчер, Джейн Килчер, Брэй Пур, Бонни Килчер-Дюпре, Август Килчер
О фильме: Полуостров Аляска — место, где человек и природа вступают друг с другом в смертельную схватку. На протяжении многих лет семейство Кличеров живет на своем участке, находящемся в отдалении от крупных городов, в самом сердце снежной пустыни. Они не пользуются ни водопроводом, ни современными системами отопления, и всегда готовы к встрече с экстремальными холодами и голодными медведями. Самая тёплая зима за несколько десятилетий приносит Килчерам множество проблем. В премьере четвертого сезона Отто, Атц-старший, Айвин и Атц Ли стараются как можно быстрее укрепить свои охотничьи домики на берегу залива и обеспечить возможность подвоза необходимых припасов. Но попытки перевезти сотни килограммов грузов по топким берегам и по быстро тающему льду реки доводят их до предела. К тому же, Айвин вместе с Евой должен заботиться о своём четырехмесячном сыне Финдли - представителе нового поколения Килчеров, родившихся в этом поселении. Семье предстоит преодолеть последствия разлива рек из-за таяния ледников, защитить свою территорию от медведей гризли и сохранить здоровье домашнего скота в период быстрой смены сезонов.

Качество: HDTVRip 720p
Видео: MPEG-4 AVC, ~ 4000 Кбит/с, 1280x720
Аудио: MP2, 2 ch, 192 Кбит/с
Продолжительность: 3 х ~ 00:44:00
Перевод: Профессиональный (одноголосый закадровый)
Официальный сайт

Скриншоты




MediaInfo


General
Unique ID : 196706628251677544340164853184263875182 (0x93FC518D359F54959A99C0C7A1F3EA6E)
Complete name : G:\Раздачи 2\Аляска последний рубеж S08 720p GeneralFilm\01 Аляска последний рубеж by Starik60.GeneralFilm.mkv
Format : Matroska
Format version : Version 4 / Version 2
File size : 1.28 GiB
Duration : 43 min 40 s
Overall bit rate mode : Constant
Overall bit rate : 4 191 kb/s
Encoded date : UTC 2020-01-11 13:42:15
Writing application : mkvmerge v7.8.0 ('River Man') 64bit built on Mar 27 2015 16:31:37
Writing library : libebml v1.3.1 + libmatroska v1.4.2 / Lavf54.63.104
Cover : Yes
Attachments : cover8.jpg
Video
ID : 1
Format : AVC
Format/Info : Advanced Video Codec
Format profile : High@L4.1
Format settings : CABAC / 3 Ref Frames
Format settings, CABAC : Yes
Format settings, ReFrames : 3 frames
Codec ID : V_MPEG4/ISO/AVC
Duration : 43 min 40 s
Bit rate mode : Constant
Bit rate : 4 000 kb/s
Width : 1 280 pixels
Height : 720 pixels
Display aspect ratio : 16:9
Frame rate mode : Constant
Frame rate : 50.000 FPS
Standard : PAL
Color space : YUV
Chroma subsampling : 4:2:0
Bit depth : 8 bits
Scan type : Progressive
Bits/(Pixel*Frame) : 0.087
Stream size : 1.22 GiB (95%)
Default : No
Forced : No
Color range : Limited
Color primaries : BT.709
Transfer characteristics : BT.709
Matrix coefficients : BT.709
Audio
ID : 2
Format : MPEG Audio
Format version : Version 1
Format profile : Layer 2
Codec ID : A_MPEG/L2
Codec ID/Hint : MP2
Duration : 43 min 40 s
Bit rate mode : Constant
Bit rate : 192 kb/s
Channel(s) : 2 channels
Sampling rate : 48.0 kHz
Frame rate : 41.667 FPS (1152 SPF)
Compression mode : Lossy
Delay relative to video : 16 ms
Stream size : 60.0 MiB (5%)
Language : English
Default : Yes
Forced : No

Внимание! Раздача ведётся путём добавления новых серий!


Внимание! Раздача ведётся путём добавления новых серий; при каждом добавлении создfётся новый торрент. Чтобы начать докачку новой серии, пользователям необходимо сделать следующее: (1) остановить скачивание, (2) удалить старый торрент у себя из клиента (старые серии удалять не надо), (3) скачать новый торрент и запустить его у себя в клиенте вместо старого, при этом указать клиенту путь в старую папку куда и должно происходить скачивание новых серий.
Ваш клиент при этом должен произвести хеширование (проверку) старой папки (если не производит сам - помогите ему сделать это), и будет докачивать только те серии которых у вас ещё нет. Старые серии при этом не удаляются, а продолжают раздаваться!
Eсли вы уже удалили старые серии, то предотвратить повторную закачку старых серий можно, отжав галочку в соответсвующих местах при запуске нового торрента.
Благодарю за отличный постер ValkiriaGF
Релиз от:
[Profile] [PM]
Display posts:    
Reply to topic

Current time is: 27-Jan 05:43

All times are UTC + 3



You cannot post new topics in this forum
You cannot reply to topics in this forum
You cannot edit your posts in this forum
You cannot delete your posts in this forum
You cannot vote in polls in this forum
You cannot attach files in this forum
You cannot download files in this forum