Птица (2016) WEB-DLRip от GeneralFilm

Reply to topic
 
Author Message

vsobbol ®

Gender: Male

Longevity: 1 year 8 months

Posts: 643

Location: Донецк

Post 12-Jan-2020 22:13

[Quote]

Птица
Год выпуска: 2016
Жанр: Мелодрама, музыкальный фильм
Выпущено: Россия, «Ленфильм»
Режиссер: Ксения Баскакова
В ролях: Иван Охлобыстин, Евдокия Малевская, Анастасия Мельникова, Гарик Сукачёв, Инна Горбикова, Кирилл Рубцов, Кирилл Захаров, Денис Старков, Олеся Соколова, Владимир Лекус, Игорь Царев, Марианна Лучинина, Ольга Яковлева (II), Ксения Карелина, Дарья Зарецкая, Наталия Вязовская, Екатерина Фёдорова, Вадим Пишков, Дмитрий Ерофеев
О фильме: «Олег Птицын умер», «Олег Птицын скрывается в тюрьме» — пестрят заголовки журналов и газет. Но нет, скандально известный рок-музыкант проходит лечение в клинике, там же к нему навязывается в друзья Катя, девочка-подросток, которая третирует всю больницу, с ней не может совладать даже собственная мать. Между ними начинается дружба.

Качество: WEB-DLRip
Видео: XviD build 73, 720x304 (2.35:1), 25.000 fps, 2047 Kbps (0.374 bit/pixel)
Аудио: 48.0 kHz, AC3, 2/0 ch, 192 kbps
Продолжительность: 01:27:05
Перевод / Озвучка: Не требуется [Русский]
Cубтитры: нет

Скриншоты



MediaInfo

General
Complete name : D:\Razdachi\Ptica.2016.WEB-DLRip.GeneralFilm.avi
Format : AVI
Format/Info : Audio Video Interleave
File size : 1.37 GiB
Duration : 1 h 27 min
Overall bit rate : 2 249 kb/s
Writing application : VirtualDubMod 1.5.10.3 | www.virtualdub-fr.org || (build 2550/release)
Writing library : VirtualDubMod build 2550/release
Video
ID : 0
Format : MPEG-4 Visual
Format profile : Advanced Simple@L5
Format settings : BVOP1 / Custom Matrix
Format settings, BVOP : 1
Format settings, QPel : No
Format settings, GMC : No warppoints
Format settings, Matrix : Custom
Codec ID : XVID
Codec ID/Hint : XviD
Duration : 1 h 27 min
Bit rate : 2 047 kb/s
Width : 720 pixels
Height : 304 pixels
Display aspect ratio : 2.35:1
Frame rate : 25.000 FPS
Color space : YUV
Chroma subsampling : 4:2:0
Bit depth : 8 bits
Scan type : Progressive
Compression mode : Lossy
Bits/(Pixel*Frame) : 0.374
Stream size : 1.25 GiB (91%)
Writing library : XviD 73
Audio
ID : 1
Format : AC-3
Format/Info : Audio Coding 3
Commercial name : Dolby Digital
Codec ID : 2000
Duration : 1 h 27 min
Bit rate mode : Constant
Bit rate : 192 kb/s
Channel(s) : 2 channels
Channel layout : L R
Sampling rate : 48.0 kHz
Frame rate : 31.250 FPS (1536 SPF)
Compression mode : Lossy
Stream size : 120 MiB (9%)
Alignment : Split across interleaves
Interleave, duration : 40 ms (1.00 video frame)
Interleave, preload duratio : 500 ms
Service kind : Complete Main
Релиз от:
[Profile] [PM]
Display posts:    
Reply to topic

Current time is: 13-Aug 11:03

All times are UTC + 3



You cannot post new topics in this forum
You cannot reply to topics in this forum
You cannot edit your posts in this forum
You cannot delete your posts in this forum
You cannot vote in polls in this forum
You cannot attach files in this forum
You cannot download files in this forum