Ведьмак / The Witcher [1 сезон: 1-8 серия из 8] (2019) WEB-DLRip-AVC от Generalfilm | NewStudio

Reply to topic
 
Author Message

White Smoke ®

Gender: Male

Longevity: 1 year 4 months

Posts: 122

Post 13-Jan-2020 13:17

[Quote]

Ведьмак / The WitcherThe worst monsters are the ones we create. Год выпуска: 2019
Жанр: ужасы, фэнтези, боевик
Выпущено: Польша, США, NetFlix, Pioneer Stilking Films, Platige Image, Sean Daniel Company
Режиссер: Алик Сахаров, Шарлотта Брандстром, Алекс Гарсиа Лопес
В ролях: Генри Кавилл (Geralt of Rivia), Фрейя Аллан (Ciri), Аня Чалотра (Yennefer), Мими Дивени (Fringilla), Имон Фэррен (Cahir), МайАнна Бёринг (Tissaia), Уилсон Раджу-Пухальте (Dara), Адам Леви (Mousesack), Джои Бэти (Jaskier), Ларс Миккельсен (Stregobor), Ройс Пирресон (Istredd), Анна Шаффер (Triss)
О фильме: Ведьмак Геральт, мутант и убийца чудовищ, на своей верной лошади по кличке Плотва путешествует по Континенту. За тугой мешочек чеканных монет этот мужчина избавит вас от всякой настырной нечисти - хоть от чудищ болотных, оборотней и даже заколдованных принцесс. В сельской глуши местную девушку Йеннифэр, которой сильно не повезло с внешностью, зато посчастливилось иметь способности к магии, отец продаёт колдунье в ученицы. А малолетняя наследница королевства Цинтра по имени Цири вынуждена пуститься в бега, когда их страну захватывает империя Нильфгаард. Судьбы этих троих окажутся тесно связаны, но скоро сказка сказывается, да не скоро дело делается.

Качество: WEB-DLRip-AVC
Видео: AVC, 1024x512 (2.000), 1372 kbps, 24 fps, 0,109 bpp
Аудио: AC3, 5.1, 48 kHz, 448 kbps CBR
Продолжительность: ~ 01:02:10
Перевод : Профессиональный многоголосый [NewStudio]
Субтитры: Русские
Внимание! Присутствует ненормативная лексика

Скриншоты

MediaInfo

General
General
Unique ID : 226229135977642499292817239450639594629 (0xAA32258FEA408391947F2F8819BEF485)
Complete name : E:\Запись с тв\The Witcher 2019 WEB-DLRip-AVC R.G.Generalfilm\The.Witcher.s01.e04.2019.WEB-DLRip-AVC.by.White Smoke.R.G.Generalfilm.NewStudio.mkv
Format : Matroska
Format version : Version 4 / Version 2
File size : 808 MiB
Duration : 1 h 2 min
Overall bit rate : 1 817 kb/s
Movie name : The.Witcher.s01.e04.2019.WEB-DLRip-AVC.by.White Smoke.R.G.Generalfilm.NewStudio.mkv
Encoded date : UTC 2020-01-10 21:31:31
Writing application : mkvmerge v6.8.0 ('Theme for Great Cities') 64bit built on Mar 2 2014 21:34:26
Writing library : libebml v1.3.0 + libmatroska v1.4.1
Cover : Yes
Attachments : cover.jpg
Video
ID : 1
Format : AVC
Format/Info : Advanced Video Codec
Format profile : High@L4.1
Format settings : CABAC / 10 Ref Frames
Format settings, CABAC : Yes
Format settings, ReFrames : 10 frames
Codec ID : V_MPEG4/ISO/AVC
Duration : 1 h 2 min
Bit rate : 1 372 kb/s
Width : 1 024 pixels
Height : 512 pixels
Display aspect ratio : 2.000
Frame rate mode : Constant
Frame rate : 24.000 FPS
Color space : YUV
Chroma subsampling : 4:2:0
Bit depth : 8 bits
Scan type : Progressive
Bits/(Pixel*Frame) : 0.109
Stream size : 593 MiB (73%)
Writing library : x264 core 148 r2638 7599210
Encoding settings : cabac=1 / ref=10 / deblock=1:-2:-1 / analyse=0x3:0x113 / me=umh / subme=11 / psy=1 / psy_rd=0.00:0.15 / mixed_ref=1 / me_range=32 / chroma_me=1 / trellis=2 / 8x8dct=1 / cqm=0 / deadzone=21,11 / fast_pskip=0 / chroma_qp_offset=-3 / threads=6 / lookahead_threads=1 / sliced_threads=0 / nr=0 / decimate=0 / interlaced=0 / bluray_compat=0 / constrained_intra=0 / bframes=10 / b_pyramid=2 / b_adapt=2 / b_bias=0 / direct=1 / weightb=1 / open_gop=0 / weightp=2 / keyint=240 / keyint_min=24 / scenecut=40 / intra_refresh=0 / rc_lookahead=40 / rc=2pass / mbtree=1 / bitrate=1372 / ratetol=1.0 / qcomp=0.65 / qpmin=0 / qpmax=69 / qpstep=4 / cplxblur=20.0 / qblur=0.5 / vbv_maxrate=50000 / vbv_bufsize=65500 / nal_hrd=none / filler=0 / ip_ratio=1.40 / aq=1:1.00
Language : English
Default : Yes
Forced : No
Audio
ID : 2
Format : AC-3
Format/Info : Audio Coding 3
Commercial name : Dolby Digital
Codec ID : A_AC3
Duration : 1 h 2 min
Bit rate mode : Constant
Bit rate : 448 kb/s
Channel(s) : 6 channels
Channel layout : L R C LFE Ls Rs
Sampling rate : 48.0 kHz
Frame rate : 31.250 FPS (1536 SPF)
Bit depth : 16 bits
Compression mode : Lossy
Stream size : 199 MiB (25%)
Service kind : Complete Main
Default : Yes
Forced : No
Text
ID : 3
Format : ASS
Codec ID : S_TEXT/ASS
Codec ID/Info : Advanced Sub Station Alpha
Compression mode : Lossless
Language : Russian
Default : No
Forced : Yes

Доп. информация

Мировая премьера: 20 декабря 2019 (США)
Релиз от: за Постер спасибо irinadyach
[Profile] [PM]
Display posts:    
Reply to topic

Current time is: 06-Apr 06:13

All times are UTC + 3



You cannot post new topics in this forum
You cannot reply to topics in this forum
You cannot edit your posts in this forum
You cannot delete your posts in this forum
You cannot vote in polls in this forum
You cannot attach files in this forum
You cannot download files in this forum