Про Веру [1-8 серии из 8] (2017) WEB-DLRip от GeneralFilm

Reply to topic
 
Author Message

vsobbol ®

Gender: Male

Longevity: 1 year 8 months

Posts: 643

Location: Донецк

Post 14-Jan-2020 07:14

[Quote]

Про Веру
Год выпуска: 2017
Жанр: Драма
Выпущено: Россия, «Sreda Production Company»
Режиссер: Евгений Семенов
В ролях: Вера Панфилова, Даниил Страхов, Владислав Новицкий, Екатерина Дубакина, Олег Хамитов, Кристина Исайкина, Игорь Скляр, Денис Синявский, Артур Ваха, Александр Кудренко, Евгений Антропов, Ирина Горячева, Ольга Белинская, Юлия Силаева, Мария Антонова
О фильме: Одинокая девушка Вера живёт учёбой и заботой о шестнадцатилетнем брате - трудному подростку Вера старается заменить и мать, и отца, которых нет уже несколько лет. Как «подарок судьбы», в её жизнь врывается взрослый мужчина, успешный бизнесмен-строитель. Страсть и высокий романтический полёт оборачиваются для Веры трагедией: бизнесмен Максим проворачивает вокруг Веры масштабную финансовую аферу, после чего она становится главным фигурантом уголовного дела. В последний момент перед арестом, Вера успевает понять суть махинаций, и решается на опасный поступок — она крадёт у Максима пять миллионов долларов. В колонии, Вера замышляет месть — использовать украденные деньги, что бы уничтожить своего обидчика и его подельников, партнёров. Но когда она выходит на свободу, планы меняются, потому что неожиданно выясняется, что у Максима есть жена, трое детей: у его подельников тоже есть семьи, и просто «уничтожить» становится не так интересно...
Качество: WEB-DLRip
Видео: XviD build 73, 720x400 (16:9), 25.000 fps, ~ 1400 Kbps (~ 0.194 bit/pixel)
Аудио: 48.0 kHz, AC3, 2/0 ch, 192 kbps
Продолжительность: 8 х ~ 00:50:00
Перевод / Озвучка: Не требуется [Русский]
Cубтитры: нет

Скриншоты



MediaInfo

General
Complete name : D:\Razdachi\Pro.Veru.2019.WEB-DLRip.GeneralFilm\e02.Pro.Veru.avi
Format : AVI
Format/Info : Audio Video Interleave
File size : 557 MiB
Duration : 48 min 38 s
Overall bit rate : 1 602 kb/s
Writing application : VirtualDubMod 1.5.10.3 | www.virtualdub-fr.org || (build 2550/release)
Writing library : VirtualDubMod build 2550/release
Video
ID : 0
Format : MPEG-4 Visual
Format profile : Advanced Simple@L5
Format settings : BVOP1 / Custom Matrix
Format settings, BVOP : 1
Format settings, QPel : No
Format settings, GMC : No warppoints
Format settings, Matrix : Custom
Codec ID : XVID
Codec ID/Hint : XviD
Duration : 48 min 38 s
Bit rate : 1 400 kb/s
Width : 720 pixels
Height : 400 pixels
Display aspect ratio : 16:9
Frame rate : 25.000 FPS
Color space : YUV
Chroma subsampling : 4:2:0
Bit depth : 8 bits
Scan type : Progressive
Compression mode : Lossy
Bits/(Pixel*Frame) : 0.194
Stream size : 487 MiB (87%)
Writing library : XviD 73
Audio
ID : 1
Format : AC-3
Format/Info : Audio Coding 3
Commercial name : Dolby Digital
Codec ID : 2000
Duration : 48 min 38 s
Bit rate mode : Constant
Bit rate : 192 kb/s
Channel(s) : 2 channels
Channel layout : L R
Sampling rate : 48.0 kHz
Frame rate : 31.250 FPS (1536 SPF)
Compression mode : Lossy
Stream size : 66.8 MiB (12%)
Alignment : Split across interleaves
Interleave, duration : 40 ms (1.00 video frame)
Interleave, preload duratio : 500 ms
Service kind : Complete Main
Релиз от:
[Profile] [PM]
Display posts:    
Reply to topic

Current time is: 13-Aug 11:09

All times are UTC + 3



You cannot post new topics in this forum
You cannot reply to topics in this forum
You cannot edit your posts in this forum
You cannot delete your posts in this forum
You cannot vote in polls in this forum
You cannot attach files in this forum
You cannot download files in this forum