Я люблю Новый год / I Love NY (2015) HDTV 1080p от Generalfilm

Reply to topic
 
Author Message

ValkiriaGF ®

Gender: Female

Longevity: 1 year 9 months

Posts: 30

Location: Северная Пальмира

Post 16-Jan-2020 18:30

[Quote]

Я люблю Новый год / I Love NY Год выпуска: 2015
Жанр: Комедия
Выпущено: Индия
Режиссер: Радхика Рао, Винэй Сапру
В ролях: Санни Деол, Кангана Ранаут, Прем Чопра, Кюбра Саит, Майя Алагх, Маной Джоши, Навин Чоудхри, Танништа Чаттерджи, Лиллет Дюбей, Расселл Джеффри Бэнкс
О фильме: Накануне Нового года чикагский банкир Рандир напивается с друзьями, после чего оказывается в самолёте, улетает в Нью-Йорк и оказывается в квартире у незнакомой девушки. Все дело в том, что ключ Рандира подошёл к замку её квартиры, и изнутри она выглядит точно так же, как и его квартира... Болливудский ремейк знаменитой комедии Рязанова.
Качество: HDTV 1080p
Видео: AVC, 1920x1080 (16:9), 4017 kbps, 25 fps, 0,077 bpp
Аудио: MPEG-1 Audio layer 2, 2.0, 44 kHz, 192 kbps CBR
Продолжительность: 02:03:22
Перевод / Озвучка: Профессиональный [двухголосый] Bollywood HD
Cубтитры: нет

Скриншоты




MediaInfo

General
ID : 1 (0x1)
Complete name : D:торрентготовыеИндияI.Love.NY(2015)HDTV1080p.Generalfilm.ts
Format : MPEG-TS
File size : 3.82 GiB
Duration : 2 h 3 min
Overall bit rate mode : Variable
Overall bit rate : 4 430 kb/s
Video
ID : 67 (0x43)
Menu ID : 1 (0x1)
Format : AVC
Format/Info : Advanced Video Codec
Format profile : High@L4
Format settings, CABAC : Yes
Format settings, ReFrames : 4 frames
Codec ID : 27
Duration : 2 h 3 min
Bit rate mode : Variable
Bit rate : 4 017 kb/s
Maximum bit rate : 4 500 kb/s
Width : 1 920 pixels
Height : 1 080 pixels
Display aspect ratio : 16:9
Frame rate : 25.000 FPS
Color space : YUV
Chroma subsampling : 4:2:0
Bit depth : 8 bits
Scan type : Progressive
Bits/(Pixel*Frame) : 0.077
Stream size : 3.46 GiB (91%)
Audio
ID : 68 (0x44)
Menu ID : 1 (0x1)
Format : MPEG Audio
Format version : Version 1
Format profile : Layer 2
Codec ID : 3
Duration : 2 h 3 min
Bit rate mode : Constant
Bit rate : 192 kb/s
Channel(s) : 2 channels
Sampling rate : 44.1 kHz
Compression mode : Lossy
Stream size : 169 MiB (4%)
Language : English
[Profile] [PM]
Display posts:    
Reply to topic

Current time is: 13-Aug 11:27

All times are UTC + 3



You cannot post new topics in this forum
You cannot reply to topics in this forum
You cannot edit your posts in this forum
You cannot delete your posts in this forum
You cannot vote in polls in this forum
You cannot attach files in this forum
You cannot download files in this forum