Последний герой. Зрители против Звезд [2 сезон: 1 выпуск из 13] (2020) WEB-DL 720p от Files-x

Reply to topic
 
Author Message

papa1951deda ®

Gender: Male

Longevity: 1 year 2 months

Posts: 473

Location: Казахстан

Post 09-Feb-2020 14:00

[Quote]

Последний герой. Зрители против Звезд Год выпуска: 2020
Жанр: Реалити-шоу
Ведущий: Яна Троянова
В ролях: Наталья Бардо, Эрик Давидыч, Лукерья Ильяшенко, Игорь Жук, Элина Пашковская, Наталья Филиппова, Надежда Ангарская, Алексей Воевода, Птаха, Евгений Папунаишвили, Михаил Еремеев, Александр Ложкин, Наталья Хапугина, Владлена Веселова, Димитрий Павлюк, Елена Проклова.
О фильме: Легендарное реалити "Последний герой" возвращается! В новом сезоне самого успешного проекта ТВ-3 случится то, что полностью перевернёт правила игры. Против звёзд выступят обычные зрители. Они проверят на честность легендарный проект, сразятся против знаменитостей и испытают на себе все трудности жизни на острове. Всё будет на сто процентов по-настоящему! "Последний герой. Зрители против звёзд" с Яной Трояновой.
Качество: WEB-DL 720p
Видео: MPEG-4 AVC, ~ 3000 Кбит/с, 1280x720, 25 кадр/с
Аудио: AC3, 2 ch, 192 Кбит/с
Продолжительность: 1 х ~ 01:31:00
Перевод: Не требуется
Субтитры: нет

Скриншоты


MediaInfo

General
Unique ID : 202066927647736961011542880266099074726 (0x9804ACB759CB620BA1B5A3C9A853A6A6)
Complete name : D:\моё видио\Последний герой. Зрители против Звезд. S02 .2020 WEB-DL 720p. Files-x\01. Последний герой. Зрители против Звезд. S02 .2020 WEB-DL 720p. Files-x.mkv
Format : Matroska
Format version : Version 2
File size : 2.00 GiB
Duration : 1h 30mn
Overall bit rate mode : Variable
Overall bit rate : 3 188 Kbps
Encoded date : UTC 2020-02-08 17:41:07
Writing application : mkvmerge v7.8.0 ('River Man') 32bit built on Apr 3 2015 12:11:22
Writing library : libebml v1.3.1 + libmatroska v1.4.2
Video
ID : 1
Format : AVC
Format/Info : Advanced Video Codec
Format profile : High@L3.1
Format settings, CABAC : Yes
Format settings, ReFrames : 1 frame
Format settings, GOP : M=1, N=50
Codec ID : V_MPEG4/ISO/AVC
Duration : 1h 30mn
Bit rate mode : Variable
Bit rate : 2 932 Kbps
Maximum bit rate : 3 000 Kbps
Width : 1 280 pixels
Height : 720 pixels
Display aspect ratio : 16:9
Frame rate mode : Constant
Frame rate : 25.000 fps
Color space : YUV
Chroma subsampling : 4:2:0
Bit depth : 8 bits
Scan type : Progressive
Bits/(Pixel*Frame) : 0.127
Stream size : 1.84 GiB (92%)
Default : Yes
Forced : No
Audio
ID : 2
Format : AC-3
Format/Info : Audio Coding 3
Mode extension : CM (complete main)
Format settings, Endianness : Big
Codec ID : A_AC3
Duration : 1h 30mn
Bit rate mode : Constant
Bit rate : 192 Kbps
Channel(s) : 2 channels
Channel positions : Front: L R
Sampling rate : 44.1 KHz
Bit depth : 16 bits
Compression mode : Lossy
Stream size : 124 MiB (6%)
Default : Yes
Forced : No

Внимание! Раздача ведётся путём добавления новых серий

Раздача ведётся путём добавления новых серий, при каждом добавлении создаётся новый торрент. Чтобы начать докачку новой серии, пользователям необходимо сделать следующее:
- Остановить скачивание.
- Удалить старый торрент у себя из клиента (старые серии удалять не надо).
- Скачать новый торрент и запустить его у себя в клиенте вместо старого, при этом указать клиенту путь в старую папку куда и должно происходить скачивание новых серий.
Ваш клиент при этом должен произвести хеширование (проверку) старой папки (если не производит сам - помогите ему сделать это), и будет докачивать только те серии которых у вас ещё нет. Старые серии при этом не удаляются, а продолжают раздаваться!
Релиз от:
[Profile] [PM]
Display posts:    
Reply to topic

Current time is: 17-Feb 03:20

All times are UTC + 3



You cannot post new topics in this forum
You cannot reply to topics in this forum
You cannot edit your posts in this forum
You cannot delete your posts in this forum
You cannot vote in polls in this forum
You cannot attach files in this forum
You cannot download files in this forum