Голос. Дети [7 сезон: 1-7 выпуски из -] (2020) HDTVRip от GeneralFilm

Reply to topic
 
Author Message

olegka7373 ®

Gender: Male

Longevity: 1 year 4 months

Posts: 292

Location: Россия, Новокузнецк

Post 15-Feb-2020 09:03

[Quote]

Голос. Дети
Год выпуска: 2020
Жанр: ТВ-шоу, музыка
Выпущено: Россия, Первый канал, Красный квадрат
Ведущий: Дмитрий Нагиев, Агата Муцениеце
О фильме: "Первый канал" представляет премьеру седьмого сезона музыкального проекта "Голос. Дети". Детский конкурсный проект строится по тем же принципам, что и взрослый. Из тысяч заявок на участие, присланных в адрес "Первого канала", музыкальная редакция отобрала несколько сотен самых достойных. Первым этапом для участников, прошедших предварительный отбор, становятся Слепые прослушивания. Участники выступают по одному с живым аккомпанементом. Наставники не видят участников, но слышат и оценивают их голоса. Любой Наставник может взять исполнителя в свою команду. Если участника выбрали несколько Наставников, то он сам решает, в чью команду идти. К концу этапа в каждой из трех команд окажется по 15 участников. Поединки - Наставники передают участникам свое мастерство, помогают осваивать сцену, но при этом они должны выбрать лучших. Участники соревнуются между собой в Поединках. В каждом Поединке трое представителей одной команды исполняют одну песню и Наставник выбирает лучшего участника в каждой тройке. Пятеро счастливчиков исполняют по одной песне, после чего Наставник выбирает двух конкурсантов, которые проходят в Финал. В Финале сражаются девять лучших участников проекта — по трое из каждой команды. Каждый из участников исполняет одну песню соло, другую — вместе со своими товарищами по команде и Наставником. После этого телезрители голосуют за конкурсантов в прямом эфире. Двое конкурсантов, набравших минимальное число голосов, выбывают. Оставшиеся участники исполняют еще по одной песне, а телезрители через СМС-голосование выбирают победителя проекта.
Качество: HDTVRip
Видео: XviD, ~ 1800 Кбит/с, 720х400, 25 кадр/с
Аудио: Русский (AC3, 2 ch, 192 Кбит/с)
Продолжительность: 7 x ~ 01:40:00
Перевод: Не требуется
Субтитры: нет

Скриншоты


MediaInfo

Общее
Полное имя : D:Golos.Deti.7.sezon.HDTVRip.GeneralFilm1.Golos.Deti.7.sezon.HDTVRip.GeneralFilm.avi
Формат : AVI
Формат/Информация : Audio Video Interleave
Размер файла : 1,39 Гбайт
Продолжительность : 1 ч. 39 м.
Общий поток : 2000 Кбит/сек
Программа кодирования : VirtualDubMod 1.5.10.3 | www.virtualdub-fr.org || (build 2550/release)
Библиотека кодирования : VirtualDubMod build 2550/release
Видео
Идентификатор : 0
Формат : MPEG-4 Visual
Профиль формата : Advanced Simple@L5
Параметр BVOP формата : 1
Параметр QPel формата : Нет
Параметр GMC формата : Без точки перехода
Параметр матрицы формата : Выборочная
Идентификатор кодека : XVID
Идентификатор кодека/Подсказка : XviD
Продолжительность : 1 ч. 39 м.
Битрейт : 1798 Кбит/сек
Ширина : 720 пикселей
Высота : 400 пикселей
Соотношение сторон : 16:9
Частота кадров : 25,000 кадров/сек
Цветовое пространство : YUV
Субдискретизация насыщенности : 4:2:0
Битовая глубина : 8 бит
Тип развёртки : Прогрессивная
Метод сжатия : С потерями
Бит/(Пиксели*Кадры) : 0.250
Размер потока : 1,25 Гбайт (90%)
Библиотека кодирования : XviD 1.2.1 (UTC 2008-12-04)
Аудио
Идентификатор : 1
Формат : AC-3
Формат/Информация : Audio Coding 3
Расширение режима : CM (complete main)
Параметр Endianness формата : Big
Идентификатор кодека : 2000
Продолжительность : 1 ч. 39 м.
Вид битрейта : Постоянный
Битрейт : 192 Кбит/сек
Каналы : 2 канала
Расположение каналов : Front: L R
Частота : 48,0 КГц
Битовая глубина : 16 бит
Метод сжатия : С потерями
Размер потока : 137 Мбайт (10%)
Выравнивание : Разделение по промежуткам
Продолжительность промежутка : 40 мс. (1,00 видеокадр)
Время предзагрузки промежутка : 500 мс.

Наставники

Полина Гагарина, Валерий Меладзе и Василий Вакуленко - Баста

Внимание! Раздача ведётся путём добавления новых серий

Раздача ведётся путём добавления новых серий, при каждом добавлении создаётся новый торрент. Чтобы начать докачку новой серии, пользователям необходимо сделать следующее:
- Остановить скачивание.
- Удалить старый торрент у себя из клиента (старые серии удалять не надо).
- Скачать новый торрент и запустить его у себя в клиенте вместо старого, при этом указать клиенту путь в старую папку куда и должно происходить скачивание новых серий.
Ваш клиент при этом должен произвести хеширование (проверку) старой папки (если не производит сам - помогите ему сделать это), и будет докачивать только те серии которых у вас ещё нет. Старые серии при этом не удаляются, а продолжают раздаваться!
Если вы уже удалили старые серии, то предотвратить повторную закачку старых серий можно, отжав галочку в соответствующих местах при запуске нового торрента. По возможности, желательно не удалять старые серии как можно дольше, чтобы релизер не столько продолжал раздавать старые серии, а смог сконцентрироваться на новых.
Релиз:
[Profile] [PM]
Display posts:    
Reply to topic

Current time is: 02-Apr 19:47

All times are UTC + 3



You cannot post new topics in this forum
You cannot reply to topics in this forum
You cannot edit your posts in this forum
You cannot delete your posts in this forum
You cannot vote in polls in this forum
You cannot attach files in this forum
You cannot download files in this forum