Идеальный пациент / The Perfect Patient (2019) HDRip | КПК

Reply to topic
 
Author Message

sergey82 ®

Gender: Male

Longevity: 1 year 4 months

Posts: 184

Location: Украина

Post 01-Mar-2020 18:46

[Quote]

Идеальный пациент / The Perfect Patient Год выпуска: 2019
Жанр: Триллер
Выпущено: Швеция, Brain Academy, Film i Väst, Nordisk Film
Режиссер: Микаэль Хофстрём
В ролях: Йонас Карлссон, Давид Денсик, Альба Аугуст, Сюзанн Рейтер, Линда Ульвеус, Кристофер Вагелин, Това Магнуссон-Норлинг, Даг Малмберг, Магнус Роосманн, Бьёрн Бенгтссон
О фильме: Его изощренному уму позавидовал бы сам Ганнибал Лектер. Десятки жертв по всей стране и никаких улик. Единственный свидетель - он сам, сдавшийся на милость правосудия. Что это, муки совести или очередной ход в его чудовищной игре? В клетку со зверем заходит журналист.
Качество: HDRip | КПК
Видео: MPEG-4 AVC, 640х240, 550 kb/s, 24.000 FPS
Аудио: AAC LC, 2 ch, 128 kb/s
Продолжительность: 02:11:21
Перевод / Озвучка: Дублированный [iTunes]
Cубтитры: нет

Скриншоты

MediaInfo

General
Complete name : D:\Изготовление рипа\The.Perfect.Patient-Quick.2019.HDRip-KPK.mp4
Format : MPEG-4
Format profile : Base Media
Codec ID : isom (isom/avc1/iso6)
File size : 640 MiB
Duration : 2 h 11 min
Overall bit rate mode : Variable
Overall bit rate : 681 kb/s
Encoded date : UTC 2020-03-01 15:32:33
Tagged date : UTC 2020-03-01 15:32:33
Video
ID : 1
Format : AVC
Format/Info : Advanced Video Codec
Format profile : High@L4.1
Format settings : CABAC / 10 Ref Frames
Format settings, CABAC : Yes
Format settings, Reference : 10 frames
Codec ID : avc1
Codec ID/Info : Advanced Video Coding
Duration : 2 h 11 min
Bit rate : 550 kb/s
Maximum bit rate : 3 690 kb/s
Width : 640 pixels
Height : 240 pixels
Display aspect ratio : 2.667
Frame rate mode : Constant
Frame rate : 24.000 FPS
Color space : YUV
Chroma subsampling : 4:2:0
Bit depth : 8 bits
Scan type : Progressive
Bits/(Pixel*Frame) : 0.149
Stream size : 516 MiB (81%)
Title : 264@GPAC0.5.2-DEV-rev248-g39d5978-master
Writing library : x264 core 146 r2538 121396c
Encoding settings : cabac=1 / ref=10 / deblock=1:-3:-3 / analyse=0x3:0x113 / me=umh / subme=11 / psy=1 / psy_rd=1.00:0.00 / mixed_ref=1 / me_range=48 / chroma_me=1 / trellis=2 / 8x8dct=1 / cqm=0 / deadzone=21,11 / fast_pskip=0 / chroma_qp_offset=-2 / threads=6 / lookahead_threads=1 / sliced_threads=0 / nr=0 / decimate=0 / interlaced=0 / bluray_compat=0 / constrained_intra=0 / bframes=10 / b_pyramid=2 / b_adapt=2 / b_bias=0 / direct=3 / weightb=1 / open_gop=0 / weightp=2 / keyint=240 / keyint_min=23 / scenecut=40 / intra_refresh=0 / rc_lookahead=40 / rc=2pass / mbtree=0 / bitrate=550 / ratetol=1.0 / qcomp=0.60 / qpmin=0 / qpmax=69 / qpstep=4 / cplxblur=20.0 / qblur=0.5 / vbv_maxrate=14000 / vbv_bufsize=14000 / nal_hrd=none / filler=0 / ip_ratio=1.40 / pb_ratio=1.30 / aq=1:1.00
Encoded date : UTC 2020-03-01 15:32:33
Tagged date : UTC 2020-03-01 15:32:43
Codec configuration box : avcC
Audio
ID : 2
Format : AAC LC
Format/Info : Advanced Audio Codec Low Complexity
Codec ID : mp4a-40-2
Duration : 2 h 11 min
Bit rate mode : Variable
Bit rate : 128 kb/s
Maximum bit rate : 137 kb/s
Channel(s) : 2 channels
Channel layout : L R
Sampling rate : 48.0 kHz
Frame rate : 46.875 FPS (1024 SPF)
Compression mode : Lossy
Stream size : 120 MiB (19%)
Encoded date : UTC 2020-03-01 13:42:21
Tagged date : UTC 2020-03-01 15:32:43
[Profile] [PM]
Display posts:    
Reply to topic

Current time is: 02-Apr 18:03

All times are UTC + 3



You cannot post new topics in this forum
You cannot reply to topics in this forum
You cannot edit your posts in this forum
You cannot delete your posts in this forum
You cannot vote in polls in this forum
You cannot attach files in this forum
You cannot download files in this forum